<?xml version="1.0" standalone="no"?>
<!DOCTYPE svg PUBLIC "-//W3C//DTD SVG 1.1//EN" "http://www.w3.org/Graphics/SVG/1.1/DTD/svg11.dtd" >
<svg xmlns="http://www.w3.org/2000/svg" xmlns:xlink="http://www.w3.org/1999/xlink" version="1.1">
<metadata>
Created by FontForge 20201107 at Thu Mar  3 16:21:14 2022
 By 
Copyright 2016 The Fredoka Project Authors (https://github.com/hafontia/Fredoka-One)
</metadata>
<defs>
<font id="Fredoka-Bold" horiz-adv-x="0" >
  <font-face 
    font-family="Fredoka"
    font-weight="700"
    font-stretch="normal"
    units-per-em="1000"
    panose-1="0 0 0 0 0 0 0 0 0 0"
    ascent="800"
    descent="-200"
    x-height="499"
    cap-height="691"
    bbox="-132 -249 1109 998"
    underline-thickness="50"
    underline-position="-125"
    unicode-range="U+0020-2212"
  />
<missing-glyph horiz-adv-x="543" 
d="M50 39v624h443v-624h-443zM103 92h337v518h-337v-518z" />
    <glyph glyph-name="fi" unicode="fi" horiz-adv-x="670" 
d="M180 -10q-44 0 -63 13.5t-23 35t-4 43.5v451q0 32 12 66.5t37.5 64t65 48t94.5 18.5q22 0 43 -4t34.5 -22.5t13.5 -64.5q0 -45 -14 -64t-35 -22.5t-43 -3.5q-7 0 -12 -1t-8 -2.5t-4.5 -4.5t-1.5 -6v-455q0 -22 -4 -42.5t-23.5 -34t-64.5 -13.5zM69 493h117l138 5
q22 0 42.5 -4t34 -23t13.5 -65q0 -42 -13.5 -61t-34 -24t-43.5 -5l-127 3h-131q-34 2 -47 22t-13 66q0 43 16 64.5t48 21.5zM544 -9q-45 0 -64 13.5t-22.5 34.5t-3.5 43v326q0 22 4 42.5t23 34t64 13.5t63.5 -13.5t22.5 -34.5t4 -44v-325q0 -22 -4 -43t-22.5 -34t-64.5 -13z
M544 547q-45 0 -64 13.5t-22.5 34.5t-3.5 43q0 23 4 43.5t23 33.5t64 13t63.5 -13.5t22.5 -34.5t4 -43t-4 -43t-22.5 -34t-64.5 -13z" />
    <glyph glyph-name="fl" unicode="fl" horiz-adv-x="730" 
d="M180 -10q-44 0 -63 13.5t-23 35t-4 43.5v451q0 32 12 66.5t37.5 64t65 48t94.5 18.5q22 0 43 -4t34.5 -22.5t13.5 -64.5q0 -45 -14 -64t-35 -22.5t-43 -3.5q-7 0 -12 -1t-8 -2.5t-4.5 -4.5t-1.5 -6v-455q0 -22 -4 -42.5t-23.5 -34t-64.5 -13.5zM69 493h117l138 5
q22 0 42.5 -4t34 -23t13.5 -65q0 -42 -13.5 -61t-34 -24t-43.5 -5l-127 3h-131q-34 2 -47 22t-13 66q0 43 16 64.5t48 21.5zM661 -9q-46 0 -80.5 4t-58.5 16t-39 34.5t-22 59t-7 91.5v443q0 23 4 43.5t23 34t64 13.5t63.5 -13.5t22.5 -34.5t4 -44v-431q0 -15 0.5 -23.5
t3 -12.5t8 -4.5t15.5 -0.5q13 0 27.5 -3.5t25 -21t10.5 -60.5q0 -45 -10.5 -64t-25.5 -22.5t-28 -3.5z" />
    <glyph glyph-name="f_f" unicode="ff" horiz-adv-x="747" 
d="M180 -9q-44 0 -63 13.5t-23 35t-4 43.5v236l-24 -2q-33 0 -47 21.5t-14 69.5q0 47 15 68.5t49 21.5l21 -2v38q0 32 12 66.5t37.5 64t65 48t94.5 18.5q22 0 43 -4t34.5 -22.5t13.5 -64.5q0 -45 -14 -64t-35 -22.5t-43 -3.5q-9 0 -15 -1.5t-8.5 -4.5t-2.5 -8v-42
q13 2 35.5 3t42.5 1q18 0 37.5 -1t31.5 -2v39q0 32 12 66.5t37 64t64.5 48t94.5 18.5q22 0 43 -4t34.5 -22.5t13.5 -64.5q0 -45 -13.5 -64t-34.5 -22.5t-44 -3.5q-9 0 -14.5 -1.5t-8 -4.5t-2.5 -8v-41l50 4q23 0 43.5 -4t34 -23t13.5 -65q0 -42 -13.5 -61t-34 -24t-43.5 -5
q-2 0 -20 1t-30 2v-239q0 -22 -4.5 -42.5t-23.5 -34t-64 -13.5q-44 0 -63 13.5t-23 35t-4 43.5v236q-7 0 -18.5 -0.5t-23.5 -1t-23 -0.5q-18 0 -43 1t-39 2v-239q0 -22 -4 -42.5t-23.5 -34t-64.5 -13.5z" />
    <glyph glyph-name="f_f_i" unicode="ffi" horiz-adv-x="987" 
d="M180 -9q-44 0 -63 13.5t-23 35t-4 43.5v236l-24 -2q-33 0 -47 21.5t-14 69.5q0 47 15 68.5t49 21.5l21 -2v38q0 32 12 66.5t37.5 64t65 48t94.5 18.5q22 0 43 -4t34.5 -22.5t13.5 -64.5q0 -45 -14 -64t-35 -22.5t-43 -3.5q-9 0 -15 -1.5t-8.5 -4.5t-2.5 -8v-42
q13 2 35.5 3t42.5 1q18 0 37.5 -1t31.5 -2v39q0 32 12 66.5t37 64t64.5 48t94.5 18.5q22 0 43 -4t34.5 -22.5t13.5 -64.5q0 -45 -13.5 -64t-34.5 -22.5t-44 -3.5q-9 0 -14.5 -1.5t-8 -4.5t-2.5 -8v-41l50 4q23 0 43.5 -4t34 -23t13.5 -65q0 -42 -13.5 -61t-34 -24t-43.5 -5
q-2 0 -20 1t-30 2v-239q0 -22 -4.5 -42.5t-23.5 -34t-64 -13.5q-44 0 -63 13.5t-23 35t-4 43.5v236q-7 0 -18.5 -0.5t-23.5 -1t-23 -0.5q-18 0 -43 1t-39 2v-239q0 -22 -4 -42.5t-23.5 -34t-64.5 -13.5zM867 -9q-45 0 -64 13.5t-22.5 34t-3.5 42.5v324q0 22 4 43t23 34.5
t64 13.5t63.5 -14t22 -35t3.5 -43v-324q0 -22 -4 -42.5t-22.5 -33.5t-63.5 -13zM867 543q-45 0 -64 14t-22.5 35t-3.5 42q0 23 4 43.5t23 33.5t64 13t63.5 -13.5t22 -34.5t3.5 -43t-4 -42.5t-22.5 -34t-63.5 -13.5z" />
    <glyph glyph-name="f_t" unicode="ft" horiz-adv-x="757" 
d="M180 -9q-44 0 -63 13.5t-23 35t-4 43.5v236l-24 -2q-33 0 -47 21.5t-14 69.5q0 47 15 68.5t49 21.5l21 -2v38q0 32 12 66.5t37.5 64t65 48t94.5 18.5q22 0 43 -4t34.5 -22.5t13.5 -64.5q0 -45 -14 -64t-35 -22.5t-43 -3.5q-9 0 -15 -1.5t-8.5 -4.5t-2.5 -8v-42q13 2 36 3
t44 1q22 0 44 -1t34 -2v85q0 23 4 42.5t23 32t64 12.5q44 0 62.5 -13.5t22.5 -34.5t4 -43v-81l52 3q23 0 43.5 -4t33.5 -23t13 -65q0 -45 -13.5 -64t-34.5 -22.5t-43 -3.5l-51 3v-118q0 -15 2.5 -23t8.5 -11.5t16 -3.5q26 0 46.5 -4t32 -21t11.5 -57q0 -45 -14 -64
t-35 -22.5t-42 -3.5q-63 0 -109.5 24.5t-71.5 69.5t-25 107v127q-8 0 -21.5 -0.5t-28 -1t-27.5 -0.5q-18 0 -42.5 1t-38.5 2v-239q0 -22 -4 -42.5t-23.5 -34t-64.5 -13.5z" />
    <glyph glyph-name="j_j" unicode="jj" horiz-adv-x="495" 
d="M282 -225q-21 0 -41 4t-33.5 22.5t-13.5 63.5q0 30 7.5 49.5t23.5 29t39 9.5q10 0 15 4.5t7 21t2 51.5v378q0 22 3.5 42.5t22 33.5t64.5 13q45 0 63.5 -13.5t22 -34t3.5 -42.5v-384q0 -78 -22 -133.5t-63 -85t-100 -29.5zM376 544q-44 0 -62.5 13.5t-22 34.5t-3.5 42
q0 22 3.5 42.5t22.5 33.5t63 13q45 0 63.5 -13.5t22.5 -34t4 -42.5t-4 -42.5t-22.5 -33.5t-64.5 -13zM-44 -224q-21 0 -41 4t-33.5 22.5t-13.5 63.5q0 42 13 60.5t33.5 23t42.5 4.5q11 0 28 5.5t30 22t13 49.5v378q0 22 3.5 42.5t22 33.5t64.5 13q44 0 62.5 -13.5t22 -34
t3.5 -42.5v-384q0 -60 -23 -106t-60.5 -78t-81 -48t-85.5 -16zM116 545q-44 0 -62.5 13.5t-22 34t-3.5 42.5t3.5 42.5t22.5 33.5t63 13q45 0 63.5 -13.5t22 -34t3.5 -42.5t-4 -42.5t-22.5 -33.5t-63.5 -13z" />
    <glyph glyph-name="l_l" unicode="ll" horiz-adv-x="602" 
d="M495 -7q-41 0 -74 8t-57.5 24.5t-41 41t-25 57t-8.5 73.5l-1 444q0 22 4 42.5t23 34t65 13.5q44 0 63 -13.5t23 -34.5t4 -43v-447q0 -6 1 -9.5t3.5 -6t8 -3t14.5 -0.5q33 0 53 -9t29 -29t9 -53q0 -31 -10 -51t-30.5 -29.5t-52.5 -9.5zM207 -7q-38 0 -67.5 7t-50.5 22.5
t-34.5 39.5t-20 57.5t-6.5 77.5v444q0 22 4 42.5t23 34t64 13.5t63.5 -13.5t22.5 -34.5t4 -43v-447q0 -8 1 -12t1.5 -5.5t-3.5 -1.5q26 0 41.5 -9t22 -29t6.5 -53q0 -31 -7.5 -51t-23 -29.5t-40.5 -9.5z" />
    <glyph glyph-name="t_t" unicode="tt" horiz-adv-x="738" 
d="M297 -9q-66 0 -112 23.5t-70.5 68.5t-24.5 109v127l-24 -2q-33 0 -47 21.5t-14 69.5q0 47 15 68.5t49 21.5l21 -2v84q0 23 4 42.5t23 32t64 12.5q44 0 63 -13.5t23 -34.5t4 -43v-79q11 0 31.5 0.5t41.5 0.5t39 -0.5t28 -0.5v83q0 23 4 42.5t23 32t64 12.5
q44 0 62.5 -13.5t22.5 -34.5t4 -43v-81l53 3q22 0 42.5 -4t34 -23t13.5 -65q0 -45 -14 -64t-34.5 -22.5t-42.5 -3.5l-52 3v-118q0 -15 2.5 -23t8.5 -11.5t16 -3.5q27 0 47.5 -4t32 -21t11.5 -57q0 -45 -14 -64t-35 -22.5t-42 -3.5q-66 0 -112.5 23.5t-70.5 68.5t-24 109v127
q-7 0 -18.5 -1t-23.5 -1.5t-23 -0.5q-16 0 -39 1t-36 2v-118q0 -15 2.5 -23t8.5 -11.5t16 -3.5q26 0 46.5 -4t32 -21t11.5 -57q0 -45 -14 -64t-35 -22.5t-42 -3.5z" />
    <glyph glyph-name=".notdef" horiz-adv-x="543" 
d="M50 39v624h443v-624h-443zM103 92h337v518h-337v-518z" />
    <glyph glyph-name=".null" 
 />
    <glyph glyph-name="nonmarkingreturn" horiz-adv-x="333" 
 />
    <glyph glyph-name="space" unicode=" " horiz-adv-x="235" 
 />
    <glyph glyph-name="exclam" unicode="!" horiz-adv-x="248" 
d="M124 236q-45 0 -64 12t-23 30.5t-4 38.5v295q0 20 4 39t23 31.5t65 12.5t64.5 -12.5t22.5 -32t4 -39.5v-295q0 -20 -4 -38.5t-23 -30t-65 -11.5zM124 -10q-58 0 -77 22.5t-19 74.5q0 22 4.5 44t24.5 36.5t68 14.5q59 0 77 -22t18 -75q0 -22 -4 -44t-24 -36.5t-68 -14.5z
" />
    <glyph glyph-name="quotedbl" unicode="&#x22;" horiz-adv-x="399" 
d="M301 345q-17 0 -30 18.5t-23 48t-16.5 63.5t-9.5 65t-3 51q0 24 3.5 47t21 38t59.5 15q41 0 58 -15.5t20.5 -38.5t3.5 -46q0 -20 -3 -51t-9.5 -65t-16.5 -63.5t-23.5 -48t-31.5 -18.5zM96 345q-17 0 -30.5 18.5t-23 48t-16 63.5t-9.5 65t-3 51q0 24 3.5 47t20.5 38t59 15
q41 0 58 -15.5t20.5 -38.5t3.5 -46q0 -20 -3 -51t-9.5 -65t-16.5 -63.5t-23.5 -48t-30.5 -18.5z" />
    <glyph glyph-name="numbersign" unicode="#" horiz-adv-x="697" 
d="M163 -6q-34 0 -52 11t-14 33l17 109h-51q-38 0 -51 16.5t-5 56.5q6 34 18 48t28 17t32 3h52l14 84h-51q-37 0 -50.5 16t-5.5 56q6 34 18 48t28 17t32 3h52l15 88q4 22 7 42t19.5 33.5t60.5 13.5q36 0 55.5 -12.5t15.5 -37.5l-21 -127h120l14 88q4 22 7.5 42t20 33.5
t60.5 13.5q36 0 55 -12t15 -36l-20 -129h36q38 0 50 -16t6 -56q-5 -34 -17.5 -48t-28 -17t-31.5 -3h-39l-13 -84h36q38 0 51 -16t5 -56q-6 -34 -18.5 -48.5t-27.5 -17.5t-31 -3h-39l-12 -74q-3 -20 -9 -38t-24 -29.5t-58 -11.5q-33 0 -51.5 11t-14.5 33l17 109h-119l-12 -74
q-3 -20 -9 -38t-24 -29.5t-58 -11.5zM289 288h120l13 84h-118z" />
    <glyph glyph-name="dollar" unicode="$" horiz-adv-x="442" 
d="M428 226q0 -37 -10 -66.5t-28.5 -52t-45 -37.5t-59.5 -23v-54q0 -19 -3 -37t-16.5 -29.5t-45.5 -11.5q-31 0 -44.5 12t-16 30t-2.5 36v54q-25 6 -47.5 17t-41 26t-33.5 34q-23 32 -20 53.5t34 51.5q19 17 37.5 19.5t36 -7t31.5 -27.5q17 -20 31 -28.5t33 -8.5q21 0 34 5
t19 15.5t6 26.5q0 18 -24.5 25.5t-61.5 15.5t-73 25q-19 9 -36 22t-30 31.5t-20.5 43t-7.5 57.5t9 60t26.5 47.5t42 34.5t55.5 21v46q0 19 2.5 36.5t16 29t45.5 11.5q31 0 44.5 -12t16.5 -29.5t3 -36.5v-43q23 -4 41 -13.5t41 -28.5q28 -24 30.5 -41t-20.5 -51
q-15 -24 -31.5 -34t-33.5 -7t-37 16q-7 5 -13.5 11t-17 10t-31.5 4q-8 0 -15 -2.5t-12.5 -7t-9 -10.5t-3.5 -12q0 -18 15.5 -27t41 -14t54.5 -11q26 -6 51.5 -16t46.5 -28t33.5 -47t12.5 -74z" />
    <glyph glyph-name="percent" unicode="%" horiz-adv-x="779" 
d="M194 -27q-14 8 -22.5 16.5t-9.5 19.5t7 24l360 679q8 14 17 20.5t21 5.5t27 -10q16 -9 24 -18.5t8 -19t-8 -21.5l-362 -683q-7 -14 -15.5 -19t-20 -3t-26.5 9zM194 328q-75 0 -120.5 50t-45.5 132q0 84 44.5 134t120.5 50q79 0 123 -48.5t44 -134.5q0 -87 -43 -135
t-123 -48zM193 458q25 0 36 13t11 41q0 29 -10.5 40.5t-36.5 11.5q-25 0 -35.5 -11.5t-10.5 -40.5t10.5 -41.5t35.5 -12.5zM586 -11q-75 0 -121 50t-46 132q0 85 45 134.5t121 49.5q79 0 122.5 -48t43.5 -135q0 -88 -42.5 -135.5t-122.5 -47.5zM585 119q26 0 36.5 12.5
t10.5 41.5t-10.5 40.5t-36.5 11.5q-25 0 -35.5 -12t-10.5 -41t10.5 -41t35.5 -12z" />
    <glyph glyph-name="ampersand" unicode="&#x26;" horiz-adv-x="696" 
d="M262 -17q-81 0 -136.5 23.5t-83.5 70t-28 115.5q0 36 11.5 68.5t35 64t58.5 61.5q-11 27 -19 52t-12 49t-4 46q0 63 25 105.5t74 64t120 21.5q61 0 104.5 -21t67 -60t23.5 -94q0 -35 -13.5 -64t-36.5 -54t-51 -46.5t-57 -41.5q16 -20 32.5 -39t34.5 -36t36 -32
q11 17 18.5 34.5t11.5 35.5q5 25 28.5 36.5t63.5 11.5q39 0 55 -10t20 -23.5t3 -24.5q-2 -33 -15 -66.5t-36 -66.5h3.5h3.5h3q41 0 61.5 -21t20.5 -62q0 -52 -18 -71t-65 -19q-27 0 -54 4.5t-53.5 13.5t-52.5 22q-29 -15 -59 -25.5t-60 -16t-60 -5.5zM269 140h11.5h9.5
q-10 10 -20.5 21t-21 23t-20.5 24t-20 25q-3 -5 -5 -10t-3.5 -10t-2.5 -10t-1 -10q0 -17 8.5 -29t24.5 -18t40 -6zM261 483q20 13 34 23t22.5 18t12.5 14.5t4 12.5q0 15 -9.5 23t-26.5 8t-28 -4t-16 -12.5t-5 -21.5q0 -9 1.5 -19t4 -20.5t6.5 -21.5z" />
    <glyph glyph-name="quotesingle" unicode="'" horiz-adv-x="193" 
d="M96 345q-17 0 -30.5 18.5t-23 48t-16 63.5t-9.5 65t-3 51q0 24 3.5 47t20.5 38t59 15q41 0 58 -15.5t20.5 -38.5t3.5 -46q0 -20 -3 -51t-9.5 -65t-16.5 -63.5t-23.5 -48t-30.5 -18.5z" />
    <glyph glyph-name="parenleft" unicode="(" horiz-adv-x="357" 
d="M283 -175q-55 0 -98.5 29.5t-74.5 79.5t-51.5 111.5t-30 127.5t-9.5 126q0 58 9 124t29 128.5t51 113.5t74.5 81.5t101.5 30.5q17 0 32.5 -4t25.5 -18.5t10 -47.5q0 -34 -9.5 -48.5t-24 -17.5t-30.5 -3h-5q-19 0 -44 -35t-43.5 -109t-18.5 -193q0 -71 8.5 -132t23 -107
t34 -72t41.5 -26q17 0 32.5 -3t25.5 -17.5t10 -49.5q0 -34 -10.5 -48.5t-26.5 -17.5t-32 -3z" />
    <glyph glyph-name="parenright" unicode=")" horiz-adv-x="357" 
d="M74 -175q-16 0 -32 3t-26.5 17.5t-10.5 48.5q0 35 10 49.5t26 17.5t32 3q22 0 41.5 26t34 72t23 107t8.5 132q0 119 -18.5 193t-43 109t-44.5 35h-5q-15 0 -30 3t-24.5 17.5t-9.5 48.5q0 33 10 47.5t26 18.5t32 4q58 0 101.5 -30.5t75 -81.5t51 -113.5t29 -128
t9.5 -124.5q0 -60 -10 -126t-30 -127.5t-51.5 -111.5t-74.5 -79.5t-99 -29.5z" />
    <glyph glyph-name="asterisk" unicode="*" horiz-adv-x="468" 
d="M234 701q47 0 66 -18.5t19 -65.5v-31l48 15q35 9 55 -4t33 -56q15 -45 2 -68.5t-60 -39.5l-27 -8l31 -44q18 -30 11 -52.5t-43 -48.5q-38 -28 -63.5 -23.5t-51.5 42.5l-20 27l-28 -39q-22 -29 -47 -30t-63 26q-37 26 -42 50t20 59l23 33l-37 11q-41 9 -52 32t4 70
q16 47 38 60t62 -1l38 -12v36q0 44 19 62t65 18z" />
    <glyph glyph-name="plus" unicode="+" horiz-adv-x="490" 
d="M245 24q-41 0 -58 12.5t-20.5 31.5t-3.5 39v297q0 20 3.5 38.5t21 30.5t58.5 12t58 -12t20.5 -31t3.5 -39v-297q0 -20 -3.5 -39t-20.5 -31t-59 -12zM91 172q-18 0 -36 3.5t-29.5 21t-11.5 58.5q0 42 12.5 59t32 20.5t39.5 3.5h296q20 0 39 -3.5t31 -21t12 -59.5
q0 -41 -11.5 -58t-29 -20.5t-36.5 -3.5h-308z" />
    <glyph glyph-name="comma" unicode="," horiz-adv-x="223" 
d="M42 -157l-6.5 2t-13 11t-6.5 31q0 26 8.5 35t13.5 10q2 2 18 15.5t20 44.5q-13 3 -23.5 8.5t-18.5 12.5q-14 14 -16.5 35t-2.5 40q1 22 5 43.5t24.5 36t68.5 14.5q54 0 76 -22q14 -14 16.5 -34.5t2.5 -40.5q0 -10 -0.5 -19.5t-2.5 -18.5q-5 -57 -28.5 -103t-58.5 -73.5
t-76 -27.5z" />
    <glyph glyph-name="hyphen" unicode="-" horiz-adv-x="403" 
d="M90 174q-15 0 -33 3.5t-30.5 21t-12.5 59.5q0 41 13 57.5t31 20t33 3.5h221q16 0 34 -3.5t30.5 -20.5t12.5 -58t-12 -58.5t-29.5 -21t-35.5 -3.5h-222z" />
    <glyph glyph-name="period" unicode="." horiz-adv-x="220" 
d="M110 -10q-53 0 -74.5 21t-21.5 73q0 37 9.5 58t30.5 30.5t57 9.5q53 0 74 -21.5t21 -75.5q0 -35 -9 -56t-30 -30t-57 -9z" />
    <glyph glyph-name="slash" unicode="/" horiz-adv-x="489" 
d="M60 -46q-46 22 -54.5 43.5t10.5 62.5l300 627q14 28 28.5 40t35 10t49.5 -16q33 -16 46.5 -30.5t11.5 -33t-16 -47.5l-299 -621q-19 -43 -42.5 -48.5t-69.5 13.5z" />
    <glyph glyph-name="zero" unicode="0" horiz-adv-x="565" 
d="M286 -22q-70 0 -118.5 24.5t-78.5 64.5t-46.5 88t-22.5 96.5t-6 88.5q0 36 6 83t21.5 95.5t45.5 90t78.5 67t118.5 25.5q68 0 115.5 -25t77 -65.5t46 -89t22.5 -96.5t6 -86q0 -40 -6.5 -88.5t-23 -96.5t-46 -88t-76 -64t-113.5 -24zM282 162q26 0 42 12.5t25 32.5
t13 43.5t5 46t1 38.5v5q0 58 -9.5 97.5t-28 60t-47.5 20.5q-30 0 -49 -20t-28 -60t-9 -99q0 -57 9.5 -96.5t28.5 -60t47 -20.5z" />
    <glyph glyph-name="one" unicode="1" horiz-adv-x="379" 
d="M259 -11q-50 0 -70 20t-20 71v521q0 50 20 70t71 20q50 0 70 -20.5t20 -71.5v-520q0 -50 -20 -70t-71 -20zM159 409q-34 -30 -61.5 -29t-59.5 35q-33 35 -31 66t42 66l127 114q33 30 61.5 27.5t59.5 -36.5q32 -34 29.5 -64.5t-42.5 -66.5z" />
    <glyph glyph-name="two" unicode="2" horiz-adv-x="566" 
d="M105 -11q-37 0 -64 28t-27 65q0 19 4.5 36t12.5 32.5t19 28.5q26 33 64 60t79 51t77 48t58.5 52t22.5 62q0 10 -4.5 25.5t-20.5 28t-51 12.5q-21 0 -36 -5.5t-24 -16t-13.5 -26t-4.5 -35.5q0 -21 -4 -40.5t-23 -32t-65 -12.5q-45 0 -64 13.5t-23 35t-4 43.5q0 46 17.5 92
t51.5 83.5t82 60.5t109 23q73 0 132 -35.5t94 -95t35 -133.5q0 -49 -16 -89t-41.5 -71.5t-54.5 -54t-56 -37t-45 -21.5t-22 -7l10 16h158q23 0 44 -4t34 -23.5t13 -65.5q0 -44 -13.5 -63.5t-35 -23.5t-44.5 -4h-361z" />
    <glyph glyph-name="three" unicode="3" horiz-adv-x="565" 
d="M281 -21q-54 0 -102 18t-85.5 49.5t-58.5 72t-21 84.5q0 63 100 63q28 0 42.5 -5t23.5 -17.5t18 -35.5l6.5 -12.5t24.5 -25t53 -12.5q27 0 46 7t29.5 20t10.5 30q0 20 -10 33t-27 19t-40 6q-22 0 -43 3t-34.5 21t-13.5 63q0 46 13.5 63.5t35 20t43.5 2.5q20 0 33.5 2.5
t20.5 9.5t7 20q0 15 -7.5 25.5t-21.5 16t-33 5.5q-24 0 -38 -6t-21.5 -15.5t-12.5 -18.5q-19 -42 -50.5 -50.5t-75.5 15.5q-43 26 -49 55t14 69q0 -1 5.5 11.5t20.5 31.5t40 38.5t64 32.5t93 13q63 0 110.5 -20t80 -52t49 -70.5t16.5 -76.5q0 -37 -12.5 -62.5t-29 -40
t-27.5 -20.5q9 -6 23 -17.5t27.5 -29.5t23 -41.5t9.5 -53.5q0 -69 -35 -122.5t-96 -84.5t-139 -31z" />
    <glyph glyph-name="four" unicode="4" horiz-adv-x="551" 
d="M430 -8q-45 0 -64 13.5t-23 35t-4 43.5v104h-243q-45 0 -64 13.5t-23 35t-4 43.5q0 11 0.5 18t2.5 14l77 311q13 55 38 66t75 -1q37 -10 57.5 -28.5t14.5 -44.5l-62 -255h131v245q0 22 4 41.5t23.5 32.5t65.5 13q45 0 64 -13.5t23 -34.5t4 -44v-517q0 -23 -4.5 -44
t-23.5 -34t-65 -13z" />
    <glyph glyph-name="five" unicode="5" horiz-adv-x="493" 
d="M236 -22q-47 0 -83 10.5t-60.5 24.5t-37 24.5l-12.5 10.5q-15 13 -26.5 27.5t-11.5 33.5q0 16 9 32.5t28 35.5q15 17 30.5 25.5t31.5 8.5q15 0 30.5 -7.5t37.5 -25.5l5.5 -4t18 -8t34.5 -4q21 0 35.5 7t22 19.5t7.5 30.5q0 17 -8 30t-22 20.5t-32 7.5q-12 0 -20.5 -3
t-13 -6.5t-5.5 -4.5q-10 -9 -23 -16.5t-33 -7.5q-15 0 -31 5t-34 15q-32 17 -44.5 30t-12.5 29l37 284q2 15 8 36.5t25 38t59 16.5l229 -1q23 0 43.5 -4t34 -23.5t13.5 -66.5q0 -43 -12.5 -61.5t-32.5 -22t-41 -3.5h-154l-7 -53q3 1 6 1t5.5 0.5t5.5 0.5h5q47 0 90 -18.5
t76.5 -51.5t53 -75t19.5 -89q0 -70 -32 -126t-87 -89t-124 -33z" />
    <glyph glyph-name="six" unicode="6" horiz-adv-x="521" 
d="M267 -21q-79 0 -135.5 34.5t-87 99t-30.5 153.5q0 76 18 141t51.5 117.5t81 89.5t107 57t128.5 20q22 0 42 -4t33 -23t13 -65q0 -45 -13.5 -64t-34.5 -23t-44 -4q-45 0 -76.5 -12t-52 -30t-32.5 -36t-16.5 -30l-4.5 -12l-12 11l10.5 4.5t27 8.5t34.5 4q63 0 116 -29
t85 -76t32 -103q0 -64 -32 -116t-86.5 -82.5t-121.5 -30.5zM263 150q22 0 36 5.5t20.5 17.5t6.5 30q0 15 -7 26t-20 17t-30 6q-20 0 -35.5 -6t-23.5 -16.5t-8 -24.5q0 -19 6 -31.5t19.5 -18t35.5 -5.5z" />
    <glyph glyph-name="seven" unicode="7" horiz-adv-x="522" 
d="M193 -9q-45 0 -64 10t-23.5 28.5t-4.5 41.5q0 52 12.5 100t33 92t44 82.5t45.5 70t38.5 54.5t21.5 37h-200q-22 0 -43 4.5t-34.5 23.5t-13.5 64t13 64t32.5 23t40.5 4h335q46 0 64.5 -13.5t22.5 -34.5t4 -44q0 -39 -17 -82.5t-43 -89t-56 -92t-56 -92.5t-43 -89.5
t-17 -83.5q0 -22 -4.5 -40t-24 -28t-63.5 -10z" />
    <glyph glyph-name="eight" unicode="8" horiz-adv-x="541" 
d="M273 -22q-73 0 -131.5 31.5t-93 86t-34.5 123.5q0 33 11 60.5t26 47.5t27.5 31.5t15.5 14t-10 -6.5q15 -10 9.5 -6.5t-20 19.5t-27 43t-12.5 63q0 62 32 111.5t86.5 79t120.5 29.5q65 0 118 -29.5t84.5 -80.5t31.5 -114q0 -24 -8 -45.5t-19 -38t-20 -26.5t-10.5 -12
t8.5 7q-12 9 -9 6.5t15.5 -14.5t27 -32t25 -47.5t10.5 -59.5q0 -57 -23 -102t-60.5 -76t-82 -47t-88.5 -16zM272 153q23 0 39 7.5t24.5 21.5t8.5 33t-8.5 32.5t-25 20.5t-40.5 7q-23 0 -39.5 -7t-25 -20.5t-8.5 -32.5t9 -33t25.5 -21.5t40.5 -7.5zM272 444q17 0 28.5 5
t17.5 14.5t6 22.5t-6.5 22.5t-18 14.5t-28.5 5q-16 0 -28 -5t-18 -14.5t-6 -22.5t6.5 -22.5t18.5 -14.5t28 -5z" />
    <glyph glyph-name="nine" unicode="9" horiz-adv-x="521" 
d="M117 -10q-21 0 -40.5 4.5t-32 23.5t-12.5 64q0 46 13.5 64.5t35 22.5t44.5 4q45 0 76.5 12t52 30t32 36t16 30l4.5 12l13 -11l-10.5 -4t-27.5 -8.5t-35 -4.5q-62 0 -115 29t-85 76t-32 102q0 65 32 117t86 82.5t121 30.5q79 0 136 -34.5t87.5 -98.5t30.5 -154
q0 -76 -18 -141.5t-51.5 -118t-81.5 -89.5t-108 -56.5t-131 -19.5zM252 429q21 0 36 5.5t23 16.5t8 25q0 20 -6.5 32t-20 17.5t-35.5 5.5t-36 -5.5t-20.5 -17t-6.5 -30.5q0 -14 7.5 -25.5t20.5 -17.5t30 -6z" />
    <glyph glyph-name="colon" unicode=":" horiz-adv-x="221" 
d="M111 287q-53 0 -74.5 21t-21.5 73q0 37 9.5 58t30.5 30.5t57 9.5q53 0 74 -21.5t21 -75.5q0 -35 -9 -56t-30 -30t-57 -9zM110 -10q-53 0 -74.5 21t-21.5 73q0 37 9.5 58t30.5 30.5t57 9.5q53 0 74 -21.5t21 -75.5q0 -35 -9 -56t-30 -30t-57 -9z" />
    <glyph glyph-name="semicolon" unicode=";" horiz-adv-x="220" 
d="M41 -158l-6.5 2t-13 11.5t-6.5 31.5q0 26 8.5 34.5t13.5 9.5q2 2 18 16t20 45q-13 3 -23.5 8t-17.5 12q-15 14 -17.5 33.5t-2.5 38.5q0 37 8.5 58t29.5 30.5t59 9.5q54 0 77 -22q14 -14 16 -33.5t2 -38.5q0 -16 -0.5 -25t-1.5 -16q-5 -57 -28.5 -103.5t-58.5 -74
t-76 -27.5zM110 286q-55 0 -75.5 22.5t-20.5 71.5q0 37 8 58.5t29.5 31t59.5 9.5q57 0 76 -21.5t19 -76.5q0 -22 -4 -44t-24 -36.5t-68 -14.5z" />
    <glyph glyph-name="less" unicode="&#x3c;" horiz-adv-x="583" 
d="M442 12l-397 236q-13 8 -26.5 27t-13.5 47q0 37 15.5 51t25.5 20l397 236q18 11 36.5 17t38 -3t40.5 -45q21 -34 19 -55.5t-17 -35t-33 -24.5l-275 -163l276 -163q18 -11 33 -24t17 -34.5t-20 -56.5q-21 -35 -41 -44t-38.5 -3t-36.5 17z" />
    <glyph glyph-name="equal" unicode="=" horiz-adv-x="445" 
d="M87 277q-14 0 -31 3t-29 20t-12 57q0 39 12 55t29 19.5t32 3.5h269q16 0 33 -3.5t29 -19.5t12 -56t-11.5 -56.5t-29 -19.5t-34.5 -3h-269zM87 80q-15 0 -32 3t-29 20t-12 57q0 39 12.5 55.5t29.5 19.5t32 3h269q15 0 32 -3.5t29 -19.5t12 -56t-11.5 -56.5t-28.5 -19.5
t-34 -3h-269z" />
    <glyph glyph-name="greater" unicode="&#x3e;" horiz-adv-x="583" 
d="M141 12q-18 -11 -36.5 -17t-38 3t-41.5 44t-20 56.5t17 34.5t33 24l276 163l-275 163q-18 11 -33 24.5t-16.5 35t18.5 55.5q21 36 40.5 45t38 3t36.5 -17l397 -236q11 -6 26 -20t15 -51q0 -28 -13.5 -47t-26.5 -27z" />
    <glyph glyph-name="question" unicode="?" horiz-adv-x="476" 
d="M236 234q-42 0 -59.5 11.5t-21 29.5t-3.5 37v7q0 32 10.5 51t27 30.5t35.5 19t35.5 15t27 19t10.5 31.5q0 29 -16 42t-52 13q-16 0 -27 -4t-16.5 -9.5t-8.5 -11.5q-10 -30 -22.5 -47t-31.5 -20.5t-51 8.5q-34 14 -49.5 27t-17 31t7.5 47q1 3 7.5 18.5t20.5 37t38.5 42.5
t61 35t88.5 14q66 0 118.5 -29.5t83 -79t30.5 -111.5q0 -45 -14 -77.5t-35 -53.5t-42.5 -33t-37 -17t-18.5 -5l7 12v-10q0 -17 -4 -33.5t-22 -26.5t-60 -10zM233 -10q-58 0 -76.5 22t-18.5 75q0 22 4 44t24 36.5t68 14.5q59 0 77.5 -22t18.5 -75q0 -22 -4 -44t-24.5 -36.5
t-68.5 -14.5z" />
    <glyph glyph-name="at" unicode="@" horiz-adv-x="844" 
d="M377 -130q-111 0 -192.5 46.5t-126 132.5t-44.5 202q0 83 29 152.5t81.5 120.5t124.5 79t157 28q97 0 175.5 -27t134 -77t85 -121t29.5 -160q0 -75 -23 -130t-60.5 -91t-82 -54t-86.5 -18q-67 0 -109.5 39t-42.5 104v3v2q-7 -5 -17.5 -10t-24 -8t-30.5 -3q-30 0 -57 13.5
t-48 36.5t-32.5 53t-11.5 63v11.5t1 11.5q4 36 22 69t45 59t59 41t65 15q21 0 38.5 -6t31 -17.5t20.5 -27.5l-23 -6q2 31 19 44.5t54 13.5q32 0 49 -11t14 -36l-40 -309q0 -7 3.5 -9t18.5 -2q12 0 31 6.5t38.5 24t32.5 51t13 88.5q0 56 -19.5 100.5t-56.5 75.5t-89.5 47.5
t-118.5 16.5q-80 0 -139.5 -30t-92 -83.5t-32.5 -126.5q0 -83 26 -139t77 -84.5t126 -28.5q28 0 42 -4.5t19.5 -19t5.5 -44.5q0 -33 -10.5 -47t-26 -17t-31.5 -3zM386 217q10 0 19.5 4t17.5 11t13.5 16t6.5 19v5q0 10 -3 18t-9 14t-14 9t-17 3q-10 0 -20 -4t-18 -11t-13 -16
t-7 -20v-6q0 -11 6 -21t16 -15.5t22 -5.5z" />
    <glyph glyph-name="A" unicode="A" horiz-adv-x="711" 
d="M690 118q15 -30 16 -51t-13 -37t-45 -32q-48 -23 -74 -14.5t-49 57.5l-170 348l-168 -349q-24 -47 -50 -55.5t-73 14.5q-31 15 -45.5 31t-13.5 37t16 51l251 520q12 24 35.5 38.5t48.5 14.5q18 0 33.5 -6.5t28.5 -18.5t21 -29zM197 136l76 156h165l76 -156h-317z" />
    <glyph glyph-name="B" unicode="B" horiz-adv-x="609" 
d="M121 -8q-45 0 -64 13.5t-23 35t-4 44.5v516q0 22 4 43t23 34.5t65 13.5h234q61 0 109 -29.5t76 -78.5t28 -106q0 -19 -3.5 -38.5t-11 -38t-18.5 -35.5q17 -21 29 -45.5t18 -50t6 -51.5q-1 -48 -18.5 -89.5t-48.5 -72t-71 -48t-85 -17.5h-245zM213 175h143q7 0 19 2.5
t21.5 14t9.5 38.5q0 14 -2.5 23.5t-7.5 15t-11.5 8t-15 3.5t-18.5 1h-13q-40 0 -57 17t-17 60q0 41 18.5 57.5t60.5 16.5h12q8 0 14 1t9.5 5t5.5 11.5t2 20.5q0 23 -10.5 31t-41.5 8h-121v-334z" />
    <glyph glyph-name="C" unicode="C" horiz-adv-x="631" 
d="M376 -19q-39 0 -87 12.5t-96.5 39.5t-89 70t-65 103t-24.5 139q0 76 24.5 134t64.5 100t88.5 68t97.5 38.5t90 12.5q51 0 90 -12.5t63.5 -26t30.5 -17.5q20 -13 37.5 -28.5t17.5 -41.5q0 -13 -5.5 -27t-16.5 -29q-20 -28 -37.5 -41t-34.5 -13q-13 0 -25 6t-29 17
q-7 5 -18 11.5t-30 12t-50 5.5q-26 0 -56.5 -9.5t-57.5 -30t-44 -54t-17 -80.5q0 -48 17.5 -81t44.5 -53.5t57.5 -30t55.5 -9.5q26 0 44 4.5t32.5 12.5t26.5 16q11 8 24 14t26 6q17 0 34 -14t36 -43q11 -17 16.5 -31.5t5.5 -26.5q0 -25 -17.5 -40t-37.5 -27q-7 -4 -30 -18
t-62 -26t-94 -12z" />
    <glyph glyph-name="D" unicode="D" horiz-adv-x="655" 
d="M119 -8q-43 0 -62 13t-24 34t-5 45v517q0 22 4 43t23 34.5t65 12.5h172q71 0 134 -27t111.5 -74.5t76 -110.5t27.5 -134q0 -73 -27.5 -137t-76 -112.5t-112 -76t-136.5 -27.5h-170zM211 175h81q45 0 83 22.5t60.5 60t22.5 83.5t-22.5 84t-60.5 60.5t-84 22.5h-80v-333z
" />
    <glyph glyph-name="E" unicode="E" horiz-adv-x="603" 
d="M129 -9q-45 0 -64 13.5t-23 35t-4 43.5v517q0 52 20.5 71.5t73.5 19.5h366q23 0 43.5 -4t34 -23t13.5 -65q0 -45 -13.5 -64t-34.5 -23t-44 -4h-276v-89h185q23 0 41 -3.5t29 -19.5t11 -56q0 -38 -11 -54.5t-30 -19.5t-42 -3h-183v-89h277q23 0 43.5 -4t34 -23t13.5 -65
q0 -45 -13.5 -64t-34.5 -23t-44 -4h-368z" />
    <glyph glyph-name="F" unicode="F" horiz-adv-x="613" 
d="M129 -9q-45 0 -64 13.5t-23 35t-4 43.5v517q0 52 20.5 71.5t73.5 19.5h366q23 0 43.5 -4t33.5 -23t13 -65q0 -45 -13.5 -64t-34.5 -23t-44 -4h-275v-89h184q23 0 41.5 -3.5t29 -20t10.5 -56.5q0 -38 -11 -54t-29.5 -19t-41.5 -3h-183v-181q0 -22 -4 -43t-23 -34.5
t-65 -13.5z" />
    <glyph glyph-name="G" unicode="G" horiz-adv-x="719" 
d="M387 -19q-72 0 -135.5 29t-112.5 80t-76.5 118t-27.5 143q0 73 28 136.5t77.5 112t114.5 76t139 27.5q32 0 69 -6t72.5 -18.5t61.5 -30.5q21 -14 38.5 -30t17.5 -40q0 -12 -6 -26t-17 -30q-19 -28 -38 -40.5t-36 -12.5q-11 0 -22.5 5.5t-31.5 17.5q-6 4 -23 10.5
t-40.5 12t-49.5 5.5q-47 0 -86 -22.5t-62 -61.5t-23 -87q0 -49 24 -90.5t63.5 -67t85.5 -25.5q18 0 35.5 1t34.5 4t30 8v86h-74q-18 0 -34 3.5t-26 19.5t-10 55t11 55t28 19t34 3h175q40 -1 56 -14.5t19.5 -32.5t3.5 -40v-205q0 -28 -24 -57.5t-65 -50.5q-25 -13 -56 -21.5
t-66.5 -13t-75.5 -4.5z" />
    <glyph glyph-name="H" unicode="H" horiz-adv-x="650" 
d="M530 -8q-45 0 -64 13.5t-23 35t-4 43.5v516q0 22 4 43t23 34.5t65 13.5t64.5 -13.5t22.5 -34.5t4 -44v-516q0 -22 -4 -43t-23 -34.5t-65 -13.5zM119 -8q-45 0 -64 13.5t-23 35t-4 43.5v516q0 22 4 43t23 34.5t65 13.5t64.5 -13.5t22.5 -34.5t4 -44v-516q0 -22 -4 -43
t-23 -34.5t-65 -13.5zM195 263v156h260v-156h-260z" />
    <glyph glyph-name="I" unicode="I" horiz-adv-x="239" 
d="M119 -9q-45 0 -64 13.5t-23 35t-4 43.5v517q0 22 4 43t23 34.5t65 13.5t64.5 -13.5t22.5 -34.5t4 -44v-517q0 -22 -4 -43t-23 -34.5t-65 -13.5z" />
    <glyph glyph-name="J" unicode="J" horiz-adv-x="531" 
d="M232 -19q-42 0 -76 12t-57.5 28t-36 28l-12.5 12q-13 14 -24 28.5t-11 33.5q0 16 8.5 32.5t26.5 35.5q17 18 33 27t32 9q20 0 36.5 -12t29.5 -26q4 -3 11 -8.5t18 -10t27 -4.5t29.5 5.5t23 16t14.5 25t5 32.5v347q0 23 4.5 46t24 38t65.5 15q44 0 62.5 -14t23 -35.5
t4.5 -43.5v-360q0 -53 -20 -99.5t-56 -82t-83.5 -55.5t-101.5 -20z" />
    <glyph glyph-name="K" unicode="K" horiz-adv-x="597" 
d="M131 -9q-45 0 -64 13.5t-23 35t-4 43.5v517q0 22 4 43t23 34.5t65 13.5t64.5 -13.5t22.5 -34.5t4 -44v-138l174 199q23 25 43 35t41 4t46 -30q41 -37 42 -65t-33 -64l-196 -200l197 -197q37 -37 34.5 -66.5t-43.5 -63.5q-30 -24 -51 -30t-39 4.5t-40 36.5l-175 199v-141
q0 -22 -4 -43t-23 -34.5t-65 -13.5z" />
    <glyph glyph-name="L" unicode="L" horiz-adv-x="569" 
d="M141 -9q-45 0 -64 13.5t-23 35t-4 43.5v517q0 22 4 43t23 34.5t65 13.5t64.5 -13.5t22.5 -34.5t4 -44v-452h244q19 0 36.5 -3t29 -19.5t11.5 -55.5q0 -38 -12 -54.5t-29.5 -20t-36.5 -3.5h-335z" />
    <glyph glyph-name="M" unicode="M" horiz-adv-x="809" 
d="M118 -8q-44 0 -63 13t-23 34t-4 45v516q0 22 4 42.5t23 34t65 13.5q31 0 45.5 -4t21 -10t13.5 -14l207 -266h-6l206 265q10 11 18.5 17t23 9t41.5 3q45 0 64 -13.5t23 -34.5t4 -44v-516q0 -22 -4 -43t-23 -34t-65 -13q-45 0 -64 13.5t-23 35t-4 43.5v284l-117 -159
l-12 -15t-23 -18t-42 -8t-42.5 8t-23.5 17.5t-12 15.5l-116 158v-285q0 -22 -4 -43t-23 -34t-65 -13z" />
    <glyph glyph-name="N" unicode="N" horiz-adv-x="670" 
d="M118 -9q-44 0 -63 13.5t-23 34.5t-4 44v519q0 22 4 42t23.5 33t64.5 13q44 0 60 -11t29 -28l250 -336v287q0 22 4.5 42t23.5 33t64 13q46 0 64.5 -13.5t22.5 -34.5t4 -44v-516q0 -22 -4 -43t-23 -34.5t-65 -13.5q-34 0 -51.5 5.5t-29.5 21.5l-259 342v-278q0 -22 -4 -43
t-23 -34.5t-65 -13.5z" />
    <glyph glyph-name="O" unicode="O" horiz-adv-x="721" 
d="M365 -20q-73 0 -136.5 27.5t-111.5 76.5t-75.5 113.5t-27.5 137.5q0 76 26.5 142t73.5 116t109.5 78t133.5 28q73 0 136.5 -27.5t111.5 -76.5t75 -114.5t27 -141.5q0 -74 -26.5 -139t-74 -114.5t-109 -77.5t-132.5 -28zM360 163q34 0 64 13.5t52.5 37t35 56t12.5 69.5
t-13 69t-35.5 56.5t-52 38t-62.5 13.5q-34 0 -63.5 -13.5t-52 -38t-35.5 -56.5t-13 -69q0 -36 13 -68t35.5 -56.5t52 -38t62.5 -13.5z" />
    <glyph glyph-name="P" unicode="P" horiz-adv-x="595" 
d="M126 -8q-45 0 -64 13.5t-23 35t-4 43.5v516q0 22 4 43t23 34.5t65 13.5h199q38 0 82 -15.5t83.5 -47.5t64.5 -80t25 -114q0 -65 -25 -113t-64.5 -79.5t-83.5 -47t-83 -15.5h-107v-96q0 -22 -4 -43t-23 -34.5t-65 -13.5zM218 362h108q13 0 30 6.5t30 22.5t13 44
q0 21 -10 37.5t-26.5 26t-37.5 9.5h-107v-146z" />
    <glyph glyph-name="Q" unicode="Q" horiz-adv-x="782" 
d="M719 158q43 -28 48 -55.5t-26 -71.5q-22 -31 -40 -42t-38.5 -5t-48.5 24l-56 36q-41 -30 -90 -47t-103 -17q-73 0 -136.5 27.5t-111.5 76.5t-75.5 113.5t-27.5 137.5q0 76 26.5 142t73.5 116t109.5 78t133.5 28q73 0 136.5 -27.5t111.5 -76.5t75 -114.5t27 -141.5
q0 -40 -8.5 -78t-24.5 -73zM360 163q34 0 64 13.5t52.5 37t35 56t12.5 69.5t-13 69t-35.5 56.5t-52 38t-62.5 13.5q-34 0 -64 -13.5t-52.5 -38t-35 -56.5t-12.5 -69t13 -69t35.5 -56t52 -37.5t62.5 -13.5z" />
    <glyph glyph-name="R" unicode="R" horiz-adv-x="604" 
d="M126 -8q-45 0 -64 13.5t-23 35t-4 43.5v516q0 22 4 43t23 34.5t65 13.5h201q38 0 82 -15.5t83 -47.5t64 -80t25 -114q0 -46 -13.5 -86t-40 -72.5t-64 -57t-85.5 -38.5h-161v-97q0 -22 -4 -43t-23 -34.5t-65 -13.5zM545 16q-45 -34 -71 -27.5t-56 46.5l-184 250l208 26
l124 -167q20 -29 25.5 -49t-5.5 -38t-41 -41zM218 362h110q9 0 21.5 3.5t23.5 12t18.5 22.5t7.5 35t-10 37.5t-26.5 26t-36.5 9.5h-108v-146z" />
    <glyph glyph-name="S" unicode="S" horiz-adv-x="542" 
d="M271 -19q-61 0 -103.5 15t-69.5 35.5t-41 37.5t-17 21q-20 25 -24.5 45t6 40t35.5 44q23 22 45 24.5t43.5 -9.5t41.5 -35q24 -27 41 -36.5t39 -9.5q27 0 44 6.5t25 20t8 34.5q0 17 -17 26.5t-44.5 16.5t-61.5 15.5t-67 22.5q-20 8 -39 20t-35.5 27.5t-28.5 37t-18.5 48.5
t-6.5 61q0 61 30.5 109t84 76t121.5 28q49 0 84 -8t57.5 -19t34.5 -20.5t15 -12.5q33 -30 36 -51.5t-24 -61.5q-30 -43 -59 -48.5t-67 18.5q-8 6 -16 13.5t-21.5 13t-40.5 5.5q-10 0 -20 -3.5t-17 -9t-11.5 -13.5t-4.5 -17q0 -21 16 -32.5t42.5 -17.5t58.5 -12t65 -16
q27 -9 52 -23t44 -36t30.5 -54.5t11.5 -79.5q0 -65 -25 -110.5t-64.5 -73t-84 -40t-83.5 -12.5z" />
    <glyph glyph-name="T" unicode="T" horiz-adv-x="640" 
d="M549 692q19 0 36 -3t28.5 -19t11.5 -55q0 -38 -11.5 -54.5t-29 -19.5t-36.5 -3h-138v-458q0 -22 -4 -42.5t-22.5 -33.5t-64.5 -13q-44 0 -63 13.5t-22.5 34t-3.5 42.5v457h-139q-18 0 -35.5 3.5t-29 19.5t-11.5 55q0 38 11.5 54t29.5 19t36 3h457z" />
    <glyph glyph-name="U" unicode="U" horiz-adv-x="675" 
d="M336 -20q-76 0 -133.5 30.5t-96.5 80.5t-58.5 110t-19.5 119v280q0 23 4 44t23 34.5t65 13.5t65 -13.5t23 -34.5t4 -45v-279q0 -33 11 -69t38.5 -61.5t77.5 -25.5q38 0 66 19.5t43.5 55t15.5 82.5v284q0 22 4.5 41.5t23.5 32.5t64 13q46 0 64.5 -14t22.5 -35t4 -44v-281
q0 -60 -20 -119.5t-59.5 -109t-97.5 -79.5t-134 -30z" />
    <glyph glyph-name="V" unicode="V" horiz-adv-x="728" 
d="M366 -8q-33 0 -56 12.5t-34 37.5l-237 521q-19 44 -9.5 69.5t55.5 47.5q32 18 54.5 18.5t38.5 -14.5t28 -46l158 -389l158 389q13 31 29 46t39 14t53 -18q50 -24 58 -48.5t-12 -68.5l-237 -521q-10 -22 -33.5 -36t-52.5 -14z" />
    <glyph glyph-name="W" unicode="W" horiz-adv-x="947" 
d="M290 -8q-32 0 -50 13t-26 28.5t-10 20.5l-180 516q-15 50 -4.5 74.5t62.5 41.5q34 11 55 10t35 -17t25 -50l104 -304l82 299q3 10 10.5 26t25.5 28.5t52 12.5q38 0 56.5 -14t25.5 -30t10 -24l82 -300l104 306q11 33 24.5 49.5t35.5 18.5t56 -10q36 -13 51 -27.5
t15.5 -35.5t-9.5 -54l-179 -516q-2 -6 -9.5 -21t-25.5 -28t-52 -13t-53 15.5t-27 32t-9 19.5l-94 308l-94 -307q-1 -5 -9 -21.5t-26.5 -31.5t-53.5 -15z" />
    <glyph glyph-name="X" unicode="X" horiz-adv-x="689" 
d="M641 16q-27 -24 -47.5 -31.5t-39.5 2t-42 35.5l-470 516q-33 35 -33.5 64t38.5 65q27 25 47.5 32.5t40 -2t41.5 -36.5l470 -517q34 -37 35 -64.5t-40 -63.5zM48 16q-40 36 -39.5 63.5t34.5 64.5l470 517q23 27 42 36.5t39.5 2t47.5 -32.5q40 -36 39 -65t-34 -64
l-470 -516q-22 -26 -41.5 -35.5t-40 -2t-47.5 31.5z" />
    <glyph glyph-name="Y" unicode="Y" horiz-adv-x="638" 
d="M584 676q44 -30 48 -57.5t-22 -65.5l-199 -298v-175q0 -22 -4 -43t-23 -34.5t-65 -13.5t-65 13.5t-23 35t-4 44.5v173l-199 298q-28 39 -22 67t49 56q31 21 53 24.5t40 -9t35 -40.5l133 -214l139 214q19 29 36.5 41t39.5 8t53 -24z" />
    <glyph glyph-name="Z" unicode="Z" horiz-adv-x="598" 
d="M105 -11q-38 0 -64.5 26.5t-26.5 66.5q0 14 3 25.5t10 19.5l278 385h-196q-22 0 -44 3.5t-36.5 22t-14.5 62.5q0 46 13.5 65t35 23t43.5 4h374q38 0 64.5 -27t26.5 -67q0 -14 -3 -25.5t-10 -19.5l-278 -385h214q22 0 42.5 -4t34 -22.5t13.5 -61.5q0 -45 -13.5 -64
t-34.5 -23t-44 -4h-387z" />
    <glyph glyph-name="bracketleft" unicode="[" horiz-adv-x="324" 
d="M113 -173q-42 0 -60 13.5t-21.5 34.5t-3.5 42v768q0 22 3.5 42.5t21.5 34t60 13.5h144q15 0 29 -3t23.5 -19t9.5 -55q0 -38 -9.5 -54t-24 -19t-29.5 -3h-59v-642h60q15 0 29 -3t23.5 -19.5t9.5 -55.5q0 -37 -9.5 -53t-24 -19t-29.5 -3h-143z" />
    <glyph glyph-name="backslash" unicode="\" horiz-adv-x="491" 
d="M431 -46q-30 -14 -51 -15t-36 12t-26 38l-301 629q-18 36 -8 59t53 44q44 20 69 12.5t44 -46.5l297 -622q18 -43 9 -67t-50 -44z" />
    <glyph glyph-name="bracketright" unicode="]" horiz-adv-x="324" 
d="M68 -173q-14 0 -29 3t-24.5 19t-9.5 53q0 39 9.5 55.5t24 19.5t28.5 3h59v642h-58q-14 0 -29 3t-24.5 19t-9.5 54q0 39 9.5 55t24 19t28.5 3h143q43 0 61 -13.5t21.5 -34t3.5 -42.5v-768q0 -21 -3.5 -42t-21 -34.5t-60.5 -13.5h-143z" />
    <glyph glyph-name="asciicircum" unicode="^" horiz-adv-x="489" 
d="M245 514q17 0 29.5 -7.5t22.5 -17.5l136 -137q12 -11 21 -24.5t6 -32t-29 -44.5t-45 -29t-32.5 6t-23.5 19l-85 86l-85 -86q-10 -10 -23.5 -19t-32 -6t-45.5 29q-26 26 -29.5 44.5t6 32t20.5 24.5l137 137q9 10 21.5 17.5t30.5 7.5z" />
    <glyph glyph-name="underscore" unicode="_" horiz-adv-x="768" 
d="M71 -221q-15 0 -30.5 3t-25.5 18.5t-10 51.5q0 37 10.5 52.5t26 18.5t30.5 3h626q15 0 30.5 -3t25.5 -18.5t10 -53.5q0 -36 -10.5 -51t-26 -18t-30.5 -3h-626z" />
    <glyph glyph-name="grave" unicode="`" horiz-adv-x="448" 
d="M254 525l-157 50q-37 13 -43.5 33t5.5 60q13 44 30 54t54 0l153 -47q37 -12 44.5 -32.5t-5.5 -61.5q-13 -43 -29.5 -53t-51.5 -3z" />
    <glyph glyph-name="a" unicode="a" horiz-adv-x="557" 
d="M436 -7q-45 0 -66.5 15t-20.5 34h14q-5 -7 -19.5 -18.5t-38.5 -21t-59 -9.5q-45 0 -86.5 20.5t-74 56.5t-51.5 81.5t-19 95.5q0 49 19 94t52 80.5t74 56t86 20.5q34 0 57.5 -10t38 -22t19.5 -20h-11q-1 25 20.5 39t66.5 14t63.5 -13.5t22.5 -34.5t4 -43v-325
q0 -22 -4 -43t-22.5 -34t-64.5 -13zM271 174q19 0 34.5 10t25 26.5t9.5 35.5q0 20 -9.5 36t-25.5 26t-36 10t-36.5 -10t-26.5 -26.5t-10 -36.5q0 -19 10.5 -35t27.5 -26t37 -10z" />
    <glyph glyph-name="b" unicode="b" horiz-adv-x="554" 
d="M308 -7q-49 0 -85 21.5t-59 58t-34 82t-10 94.5q1 48 12.5 93t34.5 80t58 55.5t83 20.5q44 0 85.5 -21t74.5 -56.5t52 -80.5t19 -93q0 -50 -19 -96t-51.5 -81.5t-74 -56t-86.5 -20.5zM284 173q20 0 36.5 10t26.5 26.5t10 35.5q0 20 -9.5 36.5t-26 26t-36.5 9.5t-36.5 -10
t-26 -26t-9.5 -36q0 -19 10 -35.5t26 -26.5t35 -10zM120 -8q-45 0 -64 13.5t-22.5 34.5t-3.5 43v555q0 23 4 43.5t23 33.5t64 13t63 -13.5t21 -34.5t2 -43v-595q-7 -26 -26.5 -38t-60.5 -12z" />
    <glyph glyph-name="c" unicode="c" horiz-adv-x="503" 
d="M287 -14q-41 0 -86.5 16.5t-85.5 49t-65 81.5t-25 114q0 64 25 112.5t64.5 80.5t85 48.5t85.5 16.5q38 0 66 -8t46 -17.5t26 -14.5q20 -12 37.5 -27.5t17.5 -41.5q0 -13 -5 -26.5t-16 -30.5q-36 -55 -72 -55q-16 0 -28 5.5t-22 12.5t-21.5 12.5t-28.5 5.5q-20 0 -37 -10
t-27 -26.5t-10 -37.5t10 -38t26.5 -27t35.5 -10q14 0 23.5 3t14.5 6.5t6 3.5q14 8 26.5 15t25.5 7q17 0 35 -12.5t40 -40.5q21 -26 23.5 -48.5t-11.5 -42t-43 -37.5q-3 -2 -20.5 -11.5t-46.5 -18.5t-69 -9z" />
    <glyph glyph-name="d" unicode="d" horiz-adv-x="554" 
d="M246 -7q-45 0 -86.5 20.5t-74 56t-51.5 81.5t-19 96q0 48 19 93t52 80.5t74.5 56.5t85.5 21q48 0 83 -20.5t58 -55.5t34.5 -80t12.5 -93q1 -49 -10 -94.5t-34 -82t-58.5 -58t-85.5 -21.5zM270 173q19 0 35 10t26 26.5t10 35.5q0 20 -9.5 36t-25.5 26t-37 10
q-20 0 -36.5 -9.5t-26 -26t-9.5 -36.5q0 -19 10 -35.5t27 -26.5t36 -10zM434 -8q-40 0 -60 12t-27 38v595q0 22 2.5 43t20.5 34.5t63 13.5q46 0 64.5 -13t22.5 -33.5t4 -43.5v-555q0 -22 -4 -43t-22.5 -34.5t-63.5 -13.5z" />
    <glyph glyph-name="e" unicode="e" horiz-adv-x="535" 
d="M288 -20q-75 0 -127 24.5t-84 64t-47 85.5t-15 89q0 79 35 139t97 94t142 34q62 0 106 -20t71.5 -51t40.5 -66t13 -65q0 -57 -28 -87t-72 -30h-213q4 -16 16.5 -27.5t31.5 -18t41 -6.5t39 2.5t29.5 6.5t23 8t19 6.5t16.5 2.5q18 0 33 -12t27 -36q7 -13 10 -24.5t3 -21.5
q0 -30 -24.5 -50t-70.5 -30.5t-113 -10.5zM207 285h112q14 0 20.5 6t6.5 18q0 13 -7.5 22t-20.5 13.5t-31 4.5q-24 0 -42 -9.5t-27.5 -24t-10.5 -30.5z" />
    <glyph glyph-name="f" unicode="f" horiz-adv-x="419" 
d="M180 -10q-44 0 -63 13.5t-23 35t-4 43.5v451q0 32 12 66.5t37.5 64t65 48t94.5 18.5q22 0 43 -4t34.5 -22.5t13.5 -64.5q0 -45 -14 -64t-35 -22.5t-43 -3.5q-7 0 -12 -1t-8 -2.5t-4.5 -4.5t-1.5 -6v-455q0 -22 -4 -42.5t-23.5 -34t-64.5 -13.5zM69 493h117l138 5
q22 0 42.5 -4t34 -23t13.5 -65q0 -42 -13.5 -61t-34 -24t-43.5 -5l-127 3h-131q-34 2 -47 22t-13 66q0 43 16 64.5t48 21.5z" />
    <glyph glyph-name="g" unicode="g" horiz-adv-x="546" 
d="M265 -220q-35 0 -71.5 9.5t-67.5 25.5t-50 34.5t-19 36.5q0 20 7.5 37t22.5 33q16 17 28 27t29 10q15 0 26.5 -7t23.5 -15.5t29.5 -15.5t44.5 -7q15 0 28 6.5t22.5 18t15.5 27t6 33.5v412q4 30 25 43t64 13q44 0 62 -13t21.5 -33.5t3.5 -42.5v-385q0 -59 -22.5 -105
t-59.5 -77.5t-81 -48t-88 -16.5zM240 6q-44 0 -84.5 20t-72.5 55t-50.5 79.5t-18.5 93.5q0 47 18.5 91t51 78.5t73 55t83.5 20.5q44 0 72.5 -18t45 -51t23.5 -78.5t7 -100.5q0 -76 -12.5 -131t-44.5 -84.5t-91 -29.5zM264 182q19 0 34.5 10t25 26t9.5 34q0 20 -9.5 36
t-25.5 25.5t-36 9.5q-19 0 -35 -10t-25.5 -26t-9.5 -35q0 -18 10 -34t26.5 -26t35.5 -10z" />
    <glyph glyph-name="h" unicode="h" horiz-adv-x="563" 
d="M118 -9q-45 0 -64 13.5t-22.5 34.5t-3.5 43v556q0 23 4 43.5t23 33.5t64 13t63.5 -13.5t22.5 -34t4 -43.5v-182q15 14 40.5 28.5t59.5 14.5q64 0 115 -33.5t81 -90.5t30 -129v-164q0 -22 -4 -42.5t-22.5 -34t-64.5 -13.5q-44 0 -63.5 13t-23.5 34t-4 45v163q0 22 -8 37.5
t-23 24.5t-36 9q-27 0 -50 -17t-27 -39v-180q0 -22 -4 -43t-22.5 -34t-64.5 -13z" />
    <glyph glyph-name="i" unicode="i" horiz-adv-x="251" 
d="M125 -9q-45 0 -64 13.5t-22.5 34.5t-3.5 43v326q0 22 4 42.5t23 34t64 13.5t63.5 -13.5t22.5 -34.5t4 -44v-325q0 -22 -4 -43t-22.5 -34t-64.5 -13zM125 547q-45 0 -64 13.5t-22.5 34.5t-3.5 43q0 23 4 43.5t23 33.5t64 13t63.5 -13.5t22.5 -34.5t4 -43t-4 -43t-22.5 -34
t-64.5 -13z" />
    <glyph glyph-name="j" unicode="j" horiz-adv-x="234" 
d="M-44 -219q-21 0 -41 4t-33.5 22.5t-13.5 63.5q0 42 13.5 60.5t34 23t42.5 4.5q8 0 20 2.5t23.5 10.5t19 23t7.5 40v384q0 20 4 39t23 31.5t63 12.5t62.5 -13.5t22 -34t3.5 -42.5v-383q0 -60 -23 -106.5t-60 -78t-81 -47.5t-86 -16zM116 549q-51 0 -69.5 19t-18.5 71
q0 51 19 69.5t71 18.5q51 0 69.5 -18.5t18.5 -69.5q0 -52 -19 -71t-71 -19z" />
    <glyph glyph-name="k" unicode="k" horiz-adv-x="512" 
d="M463 156q37 -33 39.5 -62.5t-33.5 -67.5q-27 -28 -46.5 -36.5t-38.5 0t-45 31.5l-123 115v-55q0 -22 -4 -43t-22.5 -34t-64.5 -13q-45 0 -64 13.5t-22.5 34.5t-3.5 43v557q0 23 4 43.5t23 34t64 13.5t63.5 -13.5t22.5 -34.5t4 -44v-276l85 83q24 23 45 31.5t41.5 1
t43.5 -32.5q39 -42 37.5 -68t-37.5 -62l-81 -71z" />
    <glyph glyph-name="l" unicode="l" horiz-adv-x="311" 
d="M242 -9q-46 0 -80.5 4t-58.5 16t-39 34.5t-22 59t-7 91.5v443q0 23 4 43.5t23 34t64 13.5t63.5 -13.5t22.5 -34.5t4 -44v-431q0 -15 0.5 -23.5t3 -12.5t8 -4.5t15.5 -0.5q13 0 27.5 -3.5t25 -21t10.5 -60.5q0 -45 -10.5 -64t-25.5 -22.5t-28 -3.5z" />
    <glyph glyph-name="m" unicode="m" horiz-adv-x="791" 
d="M118 -9q-45 0 -64 13.5t-22.5 34.5t-3.5 43v327q0 23 4 43.5t23 33.5t65 13q45 0 65.5 -17.5t20.5 -56.5l-17 5l7.5 10.5t22 24.5t35.5 24.5t48 10.5q31 0 57 -8t47.5 -24.5t37.5 -40.5q11 13 30 30t45.5 30t59.5 13q59 0 100.5 -30t63 -87t21.5 -138v-163q0 -22 -4 -43
t-23 -34.5t-65 -13.5q-45 0 -64 14t-22.5 35t-3.5 43v163q0 24 -5.5 39.5t-16 23.5t-26.5 8q-17 0 -27.5 -7t-15 -22.5t-4.5 -42.5v-163q0 -22 -4 -43t-23 -34.5t-65 -13.5q-45 0 -64 14t-22.5 35t-3.5 43v163q0 24 -5 40t-15.5 23.5t-27.5 7.5q-20 0 -30 -10t-13.5 -26
t-3.5 -35v-165q0 -22 -4 -43t-23 -34t-65 -13z" />
    <glyph glyph-name="n" unicode="n" horiz-adv-x="566" 
d="M120 -8q-45 0 -64 13.5t-22.5 34.5t-3.5 43v329q0 22 4 42t23 32.5t64 12.5q41 0 59.5 -10.5t23.5 -25.5t4.5 -27.5t1.5 -15.5l-8 -6q-1 15 11.5 30t33 27.5t44 20t44.5 7.5q50 0 88 -19t63.5 -53.5t38.5 -80.5t13 -100v-164q0 -22 -4 -43t-22.5 -34t-64.5 -13t-65 13.5
t-23 34.5t-4 43v163q0 23 -8.5 39t-24 24.5t-38.5 8.5q-22 0 -38.5 -9t-25.5 -25t-9 -38v-164q0 -22 -4 -43t-22.5 -34t-64.5 -13z" />
    <glyph glyph-name="o" unicode="o" horiz-adv-x="558" 
d="M280 -18q-46 0 -93 18.5t-86.5 53t-63 83t-23.5 108.5q0 55 21 103t57.5 84.5t84 57.5t101.5 21q74 0 134 -35.5t96 -95.5t36 -134q0 -63 -24 -112t-63 -83t-85.5 -51.5t-91.5 -17.5zM278 165q15 0 34.5 7.5t34 25.5t14.5 49q0 25 -10.5 43t-29.5 28t-44 10
q-22 0 -40 -10.5t-29 -29t-11 -42.5q0 -30 14 -48t33 -25.5t34 -7.5z" />
    <glyph glyph-name="p" unicode="p" horiz-adv-x="541" 
d="M300 3q-49 0 -85 20t-59 54.5t-34 78.5t-10 93q1 48 12.5 93t34.5 80t58 55.5t83 20.5q44 0 85.5 -21t74.5 -56.5t52 -80.5t19 -93q0 -50 -19 -94.5t-51.5 -78t-74 -52.5t-86.5 -19zM115 -221q-44 0 -63 13t-22.5 33t-3.5 42v543q0 22 3.5 42t22 33.5t62.5 13.5
q35 0 58 -9.5t33 -29.5v-592q2 -22 -2.5 -42.5t-23.5 -33.5t-64 -13zM276 173q20 0 36.5 10t26.5 26.5t10 35.5q0 20 -9.5 36.5t-26 26t-36.5 9.5t-36.5 -10t-26 -26t-9.5 -36q0 -19 10 -35.5t26 -26.5t35 -10z" />
    <glyph glyph-name="q" unicode="q" horiz-adv-x="543" 
d="M241 3q-45 0 -86.5 19t-74 52.5t-51.5 78t-19 94.5q0 48 19 93t52 80.5t74.5 56.5t85.5 21q48 0 83 -20.5t58 -55.5t34.5 -80t12.5 -93q1 -49 -10 -93t-34 -78.5t-58.5 -54.5t-85.5 -20zM265 173q19 0 35 10t26 26.5t10 35.5q0 20 -9.5 36t-25.5 26t-37 10
q-20 0 -36.5 -9.5t-26 -26t-9.5 -36.5q0 -19 10 -35.5t27 -26.5t36 -10zM426 -221q-44 0 -63.5 13t-23.5 33.5t-3 42.5v592q7 14 19 22.5t30.5 12.5t41.5 4q44 0 62.5 -13.5t22 -33.5t3.5 -42v-543q0 -22 -3.5 -42t-22 -33t-63.5 -13z" />
    <glyph glyph-name="r" unicode="r" horiz-adv-x="432" 
d="M120 -9q-45 0 -64 13.5t-22.5 35t-3.5 43.5v326q0 23 4 43.5t23 33.5t64 13q44 0 62.5 -12t22.5 -26.5t4 -22.5l-16 6l8 9t23.5 21t37 21t48.5 9q9 0 22.5 -1.5t29 -5.5t29 -12t22 -21t8.5 -32q0 -50 -21.5 -85t-56.5 -35q-19 0 -27 2.5t-11.5 5t-8 5t-16.5 2.5
q-15 0 -27.5 -3.5t-22 -10.5t-14.5 -16.5t-5 -20.5v-195q0 -22 -4 -43t-23 -34t-65 -13z" />
    <glyph glyph-name="s" unicode="s" horiz-adv-x="457" 
d="M219 -18q-28 0 -62.5 6.5t-67 19t-53.5 29.5t-21 39q0 10 4.5 22.5t12.5 27.5t20 32q7 10 16.5 15t22.5 5q18 0 35 -7.5t34 -17t35.5 -17t39.5 -7.5q19 0 28.5 4t9.5 12t-6.5 13t-18 8.5t-26.5 6.5t-32 7t-35 10q-23 7 -45 18.5t-39.5 30.5t-28 46t-10.5 66q0 52 24 87
t71 53t116 18q17 0 34 -2t34.5 -6t35 -10.5t35.5 -14.5q37 -16 38 -44.5t-21 -59.5q-12 -19 -24.5 -28.5t-25.5 -9.5q-16 0 -35 9t-40 18t-42 9q-12 0 -20.5 -2.5t-12.5 -7t-4 -10.5q0 -11 7.5 -17.5t20 -10.5t29 -7t35.5 -6q26 -4 53.5 -12.5t50.5 -24.5t37 -44t14 -73
q0 -85 -56.5 -129t-166.5 -44z" />
    <glyph glyph-name="t" unicode="t" horiz-adv-x="429" 
d="M302 -9q-53 0 -92 12t-64.5 37t-38 63t-12.5 89v388q0 23 4 42.5t23 32t64 12.5q44 0 63 -13.5t23 -34.5t4 -43v-375q0 -11 1.5 -18.5t4.5 -11.5t8 -6t13 -2q26 0 46.5 -4t32 -21t11.5 -57q0 -45 -14 -64t-35 -22.5t-42 -3.5zM74 493h117l138 5q22 0 42.5 -4t34 -23
t13.5 -65q0 -42 -13.5 -61t-34 -24t-43.5 -5l-127 3h-131q-34 2 -47 22t-13 66q0 43 16 64.5t48 21.5z" />
    <glyph glyph-name="u" unicode="u" horiz-adv-x="568" 
d="M257 -7q-48 0 -89.5 19t-72.5 53.5t-48 80.5t-17 100v163q0 23 4 43.5t23 34t64 13.5q46 0 64.5 -13.5t22.5 -34.5t4 -44v-162q0 -23 8.5 -39t25 -24.5t38.5 -8.5t38 9t25 25t9 38v164q0 23 4 43.5t23 33.5t64 13q46 0 64.5 -13.5t22.5 -34.5t4 -43v-329q0 -22 -4 -42
t-23 -33t-64 -13q-33 0 -51.5 7.5t-26.5 19t-9.5 23t-1.5 19.5l17 -5l-8 -9.5t-23.5 -22t-37 -22t-49.5 -9.5z" />
    <glyph glyph-name="v" unicode="v" horiz-adv-x="577" 
d="M288 -14q-28 0 -48.5 11t-31.5 33l-177 337q-22 43 -14 72t54 51q47 23 74 16t49 -57l94 -214l94 214q23 52 50 58t73 -17q47 -23 54 -52.5t-14 -70.5l-177 -337q-11 -22 -31 -33t-49 -11z" />
    <glyph glyph-name="w" unicode="w" horiz-adv-x="737" 
d="M235 -12q-32 0 -49.5 13t-25.5 30t-13 28l-133 327q-8 28 -7.5 47.5t14 33.5t42.5 25q46 20 75.5 11.5t42.5 -48.5l54 -149l47 129q4 10 12 25t25.5 27.5t47.5 12.5q33 0 51 -12.5t27 -28t12 -25.5l46 -128l48 133q17 44 44.5 60t72.5 -4q42 -19 58 -45.5t-2 -65.5
l-134 -325q-5 -12 -13 -29t-25 -29.5t-48 -12.5q-32 0 -49 11t-25.5 27.5t-14.5 32.5l-46 123l-46 -123q-8 -21 -15 -37t-23 -25t-50 -9z" />
    <glyph glyph-name="x" unicode="x" horiz-adv-x="538" 
d="M491 471q26 -26 33.5 -46t-1 -39t-32.5 -43l-319 -322q-23 -23 -42 -31.5t-38.5 -0.5t-45.5 32q-25 26 -32.5 46t1.5 39.5t31 41.5l319 323q37 35 63 36.5t63 -36.5zM46 471q25 25 44.5 32.5t39 -0.5t42.5 -32l319 -323q23 -23 32 -42t2 -39t-34 -46q-26 -25 -45 -32.5
t-37.5 1t-43.5 31.5l-319 322q-23 23 -31.5 42t-1 39.5t32.5 46.5z" />
    <glyph glyph-name="y" unicode="y" horiz-adv-x="576" 
d="M189 -214q-49 22 -57 48.5t13 69.5l243 544q21 47 45 56t74 -11q48 -22 56.5 -47t-10.5 -67l-245 -549q-20 -47 -44.5 -56.5t-74.5 12.5zM270 6l-238 360q-26 40 -21 66.5t48 53.5q47 29 72.5 22.5t52.5 -47.5l162 -245z" />
    <glyph glyph-name="z" unicode="z" horiz-adv-x="545" 
d="M104 -9q-37 0 -63.5 27t-26.5 64q0 18 6.5 34.5t20.5 29.5l192 172h-107q-22 0 -43 4t-35 23t-14 64t14 63.5t35 22.5t43 4h303q37 0 63.5 -26t26.5 -63q0 -19 -7 -36.5t-19 -28.5l-187 -172h135q23 0 43.5 -4t33.5 -23.5t13 -64.5t-13.5 -64t-34 -22.5t-43.5 -3.5h-336z
" />
    <glyph glyph-name="braceleft" unicode="{" horiz-adv-x="354" 
d="M273 -173q-35 0 -64.5 13t-51 36.5t-33.5 56t-12 70.5l-1 186q0 12 -5 19t-13 10.5t-15.5 4.5t-13.5 1h-5q-29 0 -41.5 18.5t-12.5 57.5q0 38 9.5 54t22.5 19.5t21 3.5h3q5 0 13.5 1t17 4.5t14 10.5t5.5 20l1 190q0 37 12 68.5t33.5 54.5t50.5 36t64 13q20 0 37.5 -3.5
t29 -19.5t11.5 -53q0 -36 -11.5 -52t-29 -20t-36.5 -5q-3 0 -5 -2t-3 -7.5t-1 -17.5v-158q0 -36 -2.5 -59.5t-9 -39t-18 -26.5t-28.5 -20q17 -10 28.5 -22t18 -28t9 -38t2.5 -53l-1 -158q0 -4 1 -7.5t3 -5t5 -1.5q19 0 36.5 -3t29.5 -19t12 -54t-12 -54t-29.5 -19t-35.5 -3z
" />
    <glyph glyph-name="bar" unicode="|" horiz-adv-x="202" 
d="M100 -225q-36 0 -51 13.5t-18 34.5t-3 43v773q0 22 3 42.5t18.5 33.5t51.5 13q37 0 52 -13.5t18 -34t3 -42.5v-774q0 -21 -3 -41.5t-18.5 -34t-52.5 -13.5z" />
    <glyph glyph-name="braceright" unicode="}" horiz-adv-x="354" 
d="M82 -173q-17 0 -35 3t-30 19t-12 54t12 54t30 19t36 3q3 0 5 1.5t3 5t1 7.5v158q0 31 2.5 53t8.5 38t17.5 28t28.5 22q-17 9 -28.5 20t-17.5 26.5t-8.5 39t-2.5 59.5v158q0 12 -1.5 17.5t-3.5 7.5t-5 2q-18 1 -36 5t-29.5 20t-11.5 52q0 37 11.5 53t29.5 19.5t37 3.5
q35 0 64 -13t51 -36t34 -54.5t12 -68.5v-190q0 -13 5.5 -20t14 -10.5t17 -4.5t13.5 -1h3q9 0 21.5 -3.5t22 -19.5t9.5 -54q0 -39 -12.5 -57.5t-41.5 -18.5h-5q-6 0 -13.5 -1t-15.5 -4.5t-13 -11t-5 -19.5v-185q0 -38 -12.5 -70.5t-34 -56t-51 -36.5t-64.5 -13z" />
    <glyph glyph-name="asciitilde" unicode="~" horiz-adv-x="556" 
d="M212 361q27 0 46 -6t33 -14t24 -16.5t18 -14.5t16 -6q14 0 22 8.5t14.5 20t17.5 20t31 8.5q12 0 24 -4.5t25 -14.5q25 -16 36.5 -31.5t11.5 -30.5q0 -23 -17 -48t-45 -46t-60.5 -34t-62.5 -13q-27 0 -46.5 6t-33.5 14.5t-24.5 17t-19 14.5t-16.5 6q-14 0 -21.5 -9
t-14 -20.5t-17 -20.5t-31.5 -9q-8 0 -17 2.5t-18.5 8.5t-19.5 14q-37 31 -41 51t18 53q4 5 15.5 20t32 32t50.5 29.5t70 12.5z" />
    <glyph glyph-name="uni00A0" unicode="&#xa0;" horiz-adv-x="235" 
 />
    <glyph glyph-name="exclamdown" unicode="&#xa1;" horiz-adv-x="249" 
d="M124 237q46 0 65 -11.5t23 -30t4 -38.5v-295q0 -20 -4 -39.5t-22.5 -32t-64.5 -12.5t-65 12.5t-23 31.5t-4 39v295q0 20 4 38.5t23 30.5t64 12zM124 483q48 0 68 -14.5t24 -36t4 -44.5q0 -53 -18 -75t-77 -22q-48 0 -68 14.5t-24.5 36.5t-4.5 44q0 53 19 75t77 22z" />
    <glyph glyph-name="cent" unicode="&#xa2;" horiz-adv-x="404" 
d="M227 -85q-31 0 -44.5 12t-16 30t-2.5 36v69q-45 12 -79 41t-52.5 71.5t-18.5 93.5q0 52 18.5 93t52.5 69t79 39v82q0 20 2.5 38t16 29.5t44.5 11.5q32 0 45 -12t15.5 -30t2.5 -37v-82q12 -3 22 -6.5t18.5 -7t13.5 -6.5q16 -9 30.5 -23t14.5 -36q0 -10 -4.5 -22t-13.5 -26
q-30 -46 -60 -46q-16 0 -27.5 7.5l-23 15t-30.5 7.5q-16 0 -30 -8t-22 -21.5t-8 -30.5t8 -30.5t21.5 -21.5t29.5 -8q17 0 29 7t23.5 14t25.5 7t29.5 -10t33.5 -33q10 -12 15 -23.5t5 -22.5q0 -16 -12 -32t-35 -30q-9 -6 -17.5 -11t-17 -7.5t-18.5 -4.5v-67q0 -19 -2.5 -37
t-15.5 -29.5t-45 -11.5z" />
    <glyph glyph-name="sterling" unicode="&#xa3;" horiz-adv-x="628" 
d="M150 -9q-38 0 -61.5 23.5t-23.5 61.5q0 24 9 39t21.5 28.5t21.5 32t9 48.5q0 2 -2.5 14.5l-4.5 22.5h-48q-16 0 -31 3.5t-25 19t-10 49.5q0 36 11 51t27.5 18t33.5 3h11v20q0 37 7 68t21 61q21 43 58.5 74t86 48t103.5 17q53 0 92 -11.5t66 -26.5t41 -27t15 -14
q26 -31 27 -61.5t-29 -59.5q-31 -28 -64.5 -27.5t-55.5 28.5q-2 2 -10.5 9t-27.5 13.5t-51 6.5q-35 0 -59.5 -11.5t-37 -33.5t-12.5 -54v-19h87q17 0 32.5 -3t25.5 -18t10 -52q0 -34 -10 -49t-25.5 -18.5t-31.5 -3.5h-53q2 -10 3 -23t1 -18q0 -9 -1 -19t-2.5 -20t-4.5 -20
h249q21 0 40.5 -3.5t32 -21.5t12.5 -61q0 -42 -13 -59.5t-32.5 -21t-40.5 -3.5h-387z" />
    <glyph glyph-name="currency" unicode="&#xa4;" horiz-adv-x="630" 
d="M57 11q-37 20 -41.5 44t14.5 55q7 13 15 25.5t18.5 24.5t22.5 21q-8 11 -21 34.5t-22.5 59t-9.5 82.5q0 56 14 103t39 82q-11 10 -28.5 29.5t-27.5 40.5q-16 32 -11.5 54.5t36.5 43.5q38 24 59.5 15.5t40.5 -41.5q4 -7 8 -13t8 -13q2 -6 22.5 -11t52 -8t66.5 -3h12
q38 0 67.5 3t47.5 8t21 12q4 6 7.5 12t7.5 12q21 35 42 40t57 -14q37 -22 40 -44t-14 -55q-11 -18 -24.5 -37t-32.5 -33q26 -34 39.5 -80t13.5 -101q0 -35 -6 -67t-17 -60.5t-28 -51.5q8 -8 18.5 -21t20.5 -26t15 -21q20 -34 15.5 -55t-40.5 -44q-37 -25 -57.5 -17t-40.5 42
q-4 6 -8 12.5t-8 11.5q-2 7 -21.5 12.5t-51 8.5t-69.5 3h-19q-28 0 -50 -1.5t-38.5 -4.5t-27 -7.5t-14.5 -9.5q-4 -7 -7 -13t-7 -13q-22 -36 -41 -41t-57 15zM310 236q46 0 74.5 12.5t41.5 40t13 71.5t-13 71t-40 40t-71 13q-43 0 -70.5 -13t-40 -40t-12.5 -70
q0 -42 13 -69.5t39.5 -41.5t65.5 -14z" />
    <glyph glyph-name="yen" unicode="&#xa5;" horiz-adv-x="630" 
d="M584 676q44 -30 48 -57.5t-22 -65.5l-199 -298v-175q0 -22 -4 -43t-23 -34.5t-65 -13.5t-65 13.5t-23 35t-4 44.5v173l-199 298q-28 39 -22 67t49 56q47 32 74.5 24t53.5 -49l136 -218l136 218q29 44 55.5 49t73.5 -24zM164 65q-16 0 -33 2.5t-29 15.5t-12 42t13 41
t31 14.5t34 2.5h295q17 0 34.5 -2.5t30 -14.5t12.5 -42q0 -29 -11.5 -41.5t-28.5 -15t-34 -2.5h-302zM164 226q-16 0 -33 2.5t-29 15.5t-12 42q0 35 19 47t55 12h303q38 0 55.5 -12.5t17.5 -47.5q0 -29 -11.5 -41.5t-28.5 -15t-34 -2.5h-302z" />
    <glyph glyph-name="brokenbar" unicode="&#xa6;" horiz-adv-x="200" 
d="M100 287q-36 0 -51 13.5t-18 30t-3 25.5v284q0 22 3 42t18.5 33t50.5 13q36 0 51 -13t18 -33.5t3 -42.5v-283q0 -9 -3 -25.5t-18 -30t-51 -13.5zM100 -217q-36 0 -51 13.5t-18 34t-3 42.5v282q0 10 3 26.5t18.5 30t51.5 13.5t50.5 -13.5t17.5 -30t3 -26.5v-283
q0 -22 -3 -42.5t-18 -33.5t-51 -13z" />
    <glyph glyph-name="section" unicode="&#xa7;" horiz-adv-x="521" 
d="M259 -219q-53 0 -92.5 13.5t-66 32.5t-41.5 35.5t-20 22.5q-28 37 -24.5 63t40.5 61q37 32 64 22.5t58 -38.5q18 -17 30.5 -28t24 -15.5t25.5 -4.5q26 0 42 6t23.5 19.5t7.5 33.5q0 15 -14 24t-38 15t-53 13t-59 18q-36 13 -68 35.5t-52 60.5t-20 97q0 23 5 44.5
t14.5 41.5t23.5 37q-22 25 -32.5 57.5t-10.5 72.5q0 58 29.5 104t80.5 73t116 27q41 0 72 -6.5t58.5 -20t55.5 -34.5q31 -26 32.5 -47t-24.5 -58q-29 -42 -57 -47.5t-64 18.5q-8 6 -15 13t-20 12t-39 5q-13 0 -24.5 -5.5t-18.5 -14.5t-7 -20q0 -21 16.5 -32.5t44 -17.5
t60 -12t65 -17.5t60 -32.5t44 -56.5t16.5 -91.5q0 -37 -9.5 -69t-29.5 -59q20 -23 29.5 -54.5t9.5 -69.5q0 -63 -24 -106t-62.5 -69.5t-81 -38.5t-80.5 -12zM304 206q9 5 15 11.5t8.5 16.5t2.5 22q0 10 -6.5 17t-18 12.5t-28 10.5t-36.5 10q-17 -4 -28.5 -15t-11.5 -25
q0 -11 5 -19.5t14.5 -14.5t22.5 -10.5t28.5 -8t32.5 -7.5z" />
    <glyph glyph-name="dieresis" unicode="&#xa8;" horiz-adv-x="526" 
d="M388 544q-46 0 -65 13.5t-23 35t-4 44.5t4 44t23.5 34t65.5 13t65 -13.5t23 -35t4 -44.5q0 -22 -4 -43t-23 -34.5t-66 -13.5zM137 544q-46 0 -65 13.5t-23 35t-4 44.5q1 23 4.5 44t23 34t65.5 13t65 -13.5t23 -35t4 -44.5q0 -22 -4 -43t-23 -34.5t-66 -13.5z" />
    <glyph glyph-name="copyright" unicode="&#xa9;" horiz-adv-x="661" 
d="M330 80q-78 0 -137.5 18.5t-99 57t-59.5 97t-20 137.5q0 81 20 140t60 98t99.5 57.5t137.5 18.5q80 0 139 -19t98.5 -57.5t59 -97.5t19.5 -139q0 -81 -20.5 -140t-60 -96.5t-99 -56t-137.5 -18.5zM341 201q-56 0 -100.5 25.5t-70 70t-25.5 101.5q0 49 25.5 90.5t68.5 67
t93 25.5q45 0 75 -14.5t46 -31t17 -23.5q3 -16 -7 -33.5t-24 -28.5q-9 -6 -18 -8.5t-17 -1t-15 5.5l-15 10t-35 10q-23 0 -40.5 -9.5t-27.5 -26.5t-10 -40q0 -21 10 -37.5t27.5 -26.5t37.5 -10q21 0 31 7t19 13.5t24 6.5q14 0 20 -3.5t19 -19.5q21 -27 20.5 -47.5
t-23.5 -36.5q-16 -11 -33.5 -19t-35.5 -12t-36 -4zM331 178q60 0 102 11.5t67 37t36.5 66.5t11.5 99q0 60 -12.5 101t-39 66t-67.5 36t-99 11q-59 0 -100.5 -11.5t-67 -37t-37.5 -67t-12 -101.5t12.5 -100.5t39.5 -65t68 -35t98 -10.5z" />
    <glyph glyph-name="ordfeminine" unicode="&#xaa;" horiz-adv-x="414" 
d="M319 672q34 0 47.5 -10.5t16.5 -25.5t3 -31v-233q0 -16 -3 -32t-17 -26t-48 -10t-50.5 13t-16.5 42l21 -9q-6 -13 -20 -23.5t-32 -16.5t-39 -6q-43 0 -81.5 26.5t-62 69t-23.5 90.5q0 47 24 88.5t62 67.5t81 26q26 0 43.5 -7t28 -16.5t15.5 -16.5l-18 -16q1 30 17 43
t52 13zM200 440q13 0 23 7t16.5 18t6.5 23q0 14 -6.5 25.5t-17 18t-24.5 6.5q-20 0 -34.5 -15t-14.5 -36q0 -12 7 -23t18.5 -17.5t25.5 -6.5z" />
    <glyph glyph-name="guillemotleft" unicode="&#xab;" horiz-adv-x="654" 
d="M320 28q-23 -23 -41.5 -31t-36 -0.5t-38.5 27.5l-161 160q-15 15 -21.5 29.5t-6.5 30.5t6.5 30t21.5 29l163 162q21 21 38.5 27.5t35.5 -1.5t40 -31q25 -24 28 -42t-8.5 -34.5t-32.5 -38.5l-102 -101l101 -101q23 -22 34.5 -39t7.5 -34.5t-28 -41.5zM610 28
q-23 -23 -41.5 -31t-36 -0.5t-38.5 27.5l-161 160q-15 15 -21.5 29.5t-6.5 30.5t6.5 30t21.5 29l163 162q21 21 38.5 27.5t35.5 -1.5t40 -31q25 -24 28 -42t-8.5 -34.5t-32.5 -38.5l-102 -101l101 -101q23 -22 34.5 -39t7.5 -34.5t-28 -41.5z" />
    <glyph glyph-name="logicalnot" unicode="&#xac;" horiz-adv-x="489" 
d="M412 107q-36 0 -51 12.5t-18 29.5t-3 32v59h-264q-15 0 -31.5 4t-28 22.5t-11.5 62.5q0 45 12 63.5t29.5 22.5t32.5 4h329q43 0 60 -17.5t17 -54.5v-169q0 -15 -3.5 -31.5t-18.5 -28t-51 -11.5z" />
    <glyph glyph-name="registered" unicode="&#xae;" horiz-adv-x="661" 
d="M331 704q80 0 139 -19t98.5 -57.5t59 -97.5t19.5 -139q0 -81 -20.5 -140t-60 -96.5t-99 -56t-137.5 -18.5t-137.5 18.5t-99 57t-59.5 97t-20 137.5q0 81 20 140t60 98t99.5 57.5t137.5 18.5zM331 178q57 0 98.5 12t67.5 38t38.5 66.5t12.5 97.5q0 60 -12.5 101t-39 66
t-67.5 36t-99 11q-59 0 -100.5 -11.5t-67 -37t-37.5 -67t-12 -101.5t12.5 -100.5t39.5 -65t68 -35t98 -10.5zM455 355l36 -96q5 -12 -5.5 -24t-28.5 -19.5t-36 -7.5q-13 0 -23.5 8t-15.5 21l-29 68h-41v-38q0 -12 -2.5 -24.5t-14 -21.5t-39.5 -9t-40 9.5t-14.5 22.5t-2.5 23
v269q0 18 6.5 28.5t21.5 15t38 4.5h77q42 0 74.5 -18t51.5 -50t19 -73q0 -25 -8 -47t-24 -41zM312 471v-52h33q12 0 20 7t9 17q0 13 -8.5 20.5t-22.5 7.5h-31z" />
    <glyph glyph-name="macron" unicode="&#xaf;" horiz-adv-x="600" 
d="M182 561q-10 0 -22 2.5t-20.5 14.5t-8.5 40q0 27 8.5 38.5t20.5 13.5t22 2h229q11 0 22.5 -2.5t20 -13.5t8.5 -39t-8 -39.5t-19.5 -14t-23.5 -2.5h-229z" />
    <glyph glyph-name="degree" unicode="&#xb0;" horiz-adv-x="379" 
d="M190 369q-47 0 -87.5 24t-64.5 64t-24 88q0 50 24 90.5t63.5 64.5t87.5 24q49 0 88.5 -24t63.5 -64t24 -90q0 -49 -23.5 -89t-63.5 -64t-88 -24zM189 496q20 0 35 14.5t15 37.5q0 22 -14 35.5t-36 13.5q-21 0 -35 -14.5t-14 -36.5t14.5 -36t34.5 -14z" />
    <glyph glyph-name="plusminus" unicode="&#xb1;" horiz-adv-x="466" 
d="M98 268q-15 0 -32 2.5t-29 17.5t-12 52t12.5 52t29.5 18t32 3h268q16 0 33 -3t29 -18.5t12 -52.5q0 -36 -11.5 -51t-28.5 -17.5t-35 -2.5h-268zM232 164q-41 0 -58 12.5t-20.5 31.5t-3.5 39v197q0 20 3.5 38.5t21 30.5t58.5 12t58 -12t20.5 -31t3.5 -39v-197
q0 -20 -3.5 -39t-20.5 -31t-59 -12zM98 -8q-15 0 -32 2.5t-29 17.5t-12 52t12.5 52t29.5 18t32 3h268q16 0 33 -3t29 -18.5t12 -52.5q0 -36 -11.5 -51t-28.5 -17.5t-35 -2.5h-268z" />
    <glyph glyph-name="uni00B2" unicode="&#xb2;" horiz-adv-x="423" 
d="M100 192q-26 0 -45 10t-29.5 28.5t-10.5 43.5q0 23 7.5 41.5t21 34t30.5 27.5q26 20 55.5 36t56 32t43.5 35.5t17 44.5q0 1 -3 8t-11 14t-24 7q-19 0 -27 -10t-10 -20t-2 -11q0 -18 -5 -35t-22.5 -28.5t-55.5 -11.5q-36 0 -51 13t-18 30.5t-3 31.5q0 54 26 98.5
t69.5 70.5t97.5 26q55 0 98.5 -26t69.5 -70.5t26 -99.5q0 -28 -8.5 -52t-22 -44t-29 -35.5t-30 -27t-24.5 -18.5l-30 11h97q13 0 28 -3.5t26 -19.5t11 -55q0 -38 -10.5 -54t-25.5 -19t-29 -3h-254z" />
    <glyph glyph-name="uni00B3" unicode="&#xb3;" horiz-adv-x="425" 
d="M209 184q-54 0 -98.5 23.5t-70.5 62t-26 83.5q0 18 10 31t29 19.5t44 6.5q26 0 39 -8t19 -25q1 -3 6 -15.5t17 -24t34 -11.5q20 0 29.5 7t12.5 15t3 11q0 19 -6 24t-34 5q-14 0 -26.5 2.5t-19.5 16.5t-7 46q0 25 8 35.5t19.5 13t22.5 2.5q19 0 25.5 7.5t6.5 25.5
q0 11 -10 19t-26 8t-23 -7t-10 -15.5t-6 -14.5q-6 -11 -16.5 -21t-36.5 -10q-15 0 -29 6t-31 19q-24 24 -24 51q0 12 11 34.5t33.5 46t56.5 39.5t80 16q52 0 94 -21.5t67 -58t25 -80.5q0 -28 -9 -50t-27 -39q14 -12 24.5 -28t16 -33.5t5.5 -35.5q0 -51 -26 -91.5
t-71.5 -63.5t-104.5 -23z" />
    <glyph glyph-name="acute" unicode="&#xb4;" horiz-adv-x="563" 
d="M193 520q-18 0 -31 15t-23 46q-13 42 -5 62.5t44 31.5l184 54q18 0 31 -15t22 -46q14 -40 5 -61t-43 -32z" />
    <glyph glyph-name="uni03BC" unicode="&#xb5;" horiz-adv-x="559" 
d="M117 -214q-44 0 -63 13.5t-22.5 34.5t-3.5 42v534q0 22 3.5 42.5t22.5 33.5t64 13t63.5 -13.5t22.5 -34t4 -42.5v-162q0 -22 8.5 -37.5t24.5 -24t38 -8.5t38 9t25 25t9 37v162q0 23 3.5 43.5t22.5 33.5t64 13t63.5 -13.5t22.5 -34.5t4 -43v-323q0 -22 -4 -42.5
t-22.5 -33.5t-64.5 -13q-29 0 -46 5.5t-26 14.5t-12.5 19t-4.5 19l15 -3q-4 -6 -11.5 -15t-19.5 -18.5t-28 -15.5t-37 -6q-19 0 -34.5 5t-27.5 12v-139q0 -21 -4 -41.5t-23 -34t-64 -13.5z" />
    <glyph glyph-name="paragraph" unicode="&#xb6;" horiz-adv-x="571" 
d="M257 -225q-36 0 -51.5 13.5t-18.5 34.5t-3 43v370q-70 2 -105.5 24t-47.5 60t-12 87q0 41 5 73t22 54t52 33.5t95 11.5h261q36 0 51 -13.5t18 -34t3 -42.5v-625q0 -21 -3 -41.5t-18 -34t-52 -13.5q-36 0 -51.5 13.5t-18.5 34.5t-3 43v601h-50v-603q0 -21 -3 -41.5
t-18 -34t-52 -13.5z" />
    <glyph glyph-name="periodcentered" unicode="&#xb7;" horiz-adv-x="220" 
d="M111 191q-54 0 -75.5 21t-21.5 74q0 54 21.5 75.5t75.5 21.5q53 0 74 -21.5t21 -75.5q0 -53 -21 -74t-74 -21z" />
    <glyph glyph-name="cedilla" unicode="&#xb8;" horiz-adv-x="328" 
d="M149 -192q-29 0 -54 14.5t-29 36.5q0 15 11 27q11 13 19 18.5t16 5.5q13 0 19 -7t20 -7q5 0 14 5t9 18q0 14 -9 19t-15 5q-10 0 -18.5 -7.5t-21.5 -7.5q-12 0 -20.5 9t-13.5 16q-4 8 -7 14.5t-3 12.5q0 15 13.5 26.5t33 17.5t37.5 6q23 0 49 -12t44.5 -36t18.5 -62
q0 -33 -16 -58t-42 -39.5t-55 -14.5z" />
    <glyph glyph-name="uni00B9" unicode="&#xb9;" horiz-adv-x="299" 
d="M191 192q-38 0 -54 11.5t-19 26.5t-3 27v200q-8 -4 -16.5 -6t-16.5 -2q-13 0 -28 9t-27 22q-25 30 -21.5 54t26.5 47l107 97q11 12 25 18t29 6q38 0 58 -17t20 -49v-381q0 -13 -3.5 -27.5t-20 -25t-56.5 -10.5z" />
    <glyph glyph-name="ordmasculine" unicode="&#xba;" horiz-adv-x="408" 
d="M206 290q-52 0 -95.5 25.5t-70 68.5t-26.5 94q0 53 26 96t69.5 69t94.5 26q53 0 96 -25.5t68.5 -68.5t25.5 -97q0 -52 -25.5 -95t-68 -68t-94.5 -25zM204 424q23 0 39 16t16 40q0 25 -15 39.5t-41 14.5q-22 0 -37.5 -16t-15.5 -39t16 -39t38 -16z" />
    <glyph glyph-name="guillemotright" unicode="&#xbb;" horiz-adv-x="651" 
d="M44 28q-24 24 -28 41.5t8 34.5t34 39l101 101l-102 101q-20 22 -32 38.5t-8.5 34.5t27.5 42q23 23 40.5 31t35 1.5t38.5 -27.5l163 -162q15 -15 21.5 -29t6.5 -30t-6.5 -30.5t-21.5 -29.5l-161 -160q-20 -20 -37.5 -27.5t-36 0.5t-42.5 31zM331 28q-24 24 -28 41.5
t8 34.5t34 39l101 101l-102 101q-20 22 -32 38.5t-8.5 34.5t27.5 42q23 23 40.5 31t35 1.5t38.5 -27.5l163 -162q15 -15 21.5 -29t6.5 -30t-6.5 -30.5t-21.5 -29.5l-161 -160q-20 -20 -37.5 -27.5t-36 0.5t-42.5 31z" />
    <glyph glyph-name="onequarter" unicode="&#xbc;" horiz-adv-x="731" 
d="M132 -27q-17 10 -24.5 18.5t-7 18.5t7.5 23l359 679q8 15 17.5 21.5t21.5 5t27 -10.5q16 -9 23.5 -18t7.5 -18.5t-7 -22.5l-362 -683q-6 -12 -15 -18t-20.5 -4.5t-27.5 9.5zM621 -7q-30 0 -43 9t-16 21.5t-3 22.5v54h-128q-25 0 -39 15t-14 41q0 9 1 18.5t4 20.5l39 157
q8 34 24 44t50 2q23 -7 35 -17t14.5 -25.5t-3.5 -39.5l-24 -96h41v123q0 13 2.5 26t16 22t44.5 9t44 -9.5t15.5 -23t2.5 -26.5v-296q0 -9 -2.5 -21.5t-15.5 -21.5t-45 -9zM184 316q-30 0 -42.5 9t-15.5 21.5t-3 21.5v157q-7 -2 -13 -3.5t-13 -1.5q-10 0 -21 6t-20 15
q-21 21 -22 43t23 44l84 76q10 10 21 15t24 5q30 0 46 -14t16 -40v-302q0 -10 -2.5 -22t-16 -21t-45.5 -9z" />
    <glyph glyph-name="onehalf" unicode="&#xbd;" horiz-adv-x="748" 
d="M129 -27q-17 10 -24.5 18.5t-7 18.5t7.5 23l359 679q8 15 17.5 21.5t21.5 5t27 -10.5q16 -9 23.5 -18t7.5 -18.5t-7 -22.5l-362 -683q-6 -12 -15 -18t-20.5 -4.5t-27.5 9.5zM184 316q-30 0 -42.5 9t-15.5 21.5t-3 21.5v157q-7 -2 -13 -3.5t-13 -1.5q-10 0 -21 6t-20 15
q-21 21 -22 43t23 44l84 76q10 10 21 15t24 5q30 0 46 -14t16 -40v-302q0 -10 -2.5 -22t-16 -21t-45.5 -9zM450 -8q-21 0 -36.5 8t-24 23.5t-8.5 35.5q0 22 8.5 38t23 28.5t32.5 22.5q20 11 40.5 21.5t38 22.5t28.5 28t11 37q0 1 -1.5 6t-7.5 10t-18 5q-14 0 -20 -7.5
t-7.5 -15t-1.5 -8.5q0 -14 -4 -28t-18 -23.5t-46 -9.5q-29 0 -41 10.5t-14.5 25.5t-2.5 26q0 43 20.5 78.5t55.5 56.5t78 21t78 -21t55.5 -56.5t20.5 -79.5q0 -28 -11 -51t-28 -40.5t-33 -29.5t-27 -19l1 10h60q11 0 23 -2.5t21 -15.5t9 -45q0 -31 -8.5 -44t-20.5 -15.5
t-24 -2.5h-201z" />
    <glyph glyph-name="threequarters" unicode="&#xbe;" horiz-adv-x="748" 
d="M171 -27q-17 10 -25 19t-7.5 19t8.5 22l359 679q9 15 18.5 21t21 5t26.5 -10q16 -9 23.5 -18t7.5 -18.5t-7 -22.5l-362 -683q-7 -12 -15.5 -17.5t-20 -4t-27.5 8.5zM171 315q-41 0 -74 18t-52.5 47.5t-19.5 61.5q0 18 12 26t26 10t19 2q23 0 32.5 -7t12.5 -15
q1 -2 4.5 -13.5t13.5 -22t29 -10.5q15 0 29 9t14 27q0 11 -5.5 20t-40.5 9q-13 0 -21.5 6t-8.5 37q0 24 10 28.5t20 4.5q20 0 29 8.5t9 25.5q0 14 -11.5 21t-25.5 7q-13 0 -20 -3.5t-10.5 -9t-6.5 -12.5q-4 -10 -9 -19t-26 -9q-22 0 -41 16t-19 37q0 12 14.5 36t45 43.5
t76.5 19.5q43 0 74 -17.5t48.5 -44.5t17.5 -56q0 -34 -12.5 -49.5t-20.5 -21.5q18 -13 29.5 -33.5t11.5 -43.5q0 -32 -17 -63t-51 -50.5t-85 -19.5zM661 -7q-30 0 -43 9t-16 21.5t-3 22.5v54h-128q-25 0 -39 15t-14 41q0 9 1 18.5t4 20.5l39 157q8 34 24.5 45t49.5 1
q23 -7 35 -17t14.5 -25.5t-3.5 -39.5l-24 -96h41v123q0 13 2.5 26t16 22t44.5 9t44 -9.5t15.5 -23t2.5 -26.5v-296q0 -9 -2.5 -21.5t-15.5 -21.5t-45 -9z" />
    <glyph glyph-name="questiondown" unicode="&#xbf;" horiz-adv-x="475" 
d="M236 247q42 0 59.5 -11.5t21 -29t3.5 -37.5v-7q0 -32 -10.5 -51t-27 -30.5t-35.5 -19t-35.5 -15t-27 -19t-10.5 -31.5q0 -29 16 -42t52 -13q17 0 27.5 4t16.5 10t8 11q11 30 23 47.5t31.5 20.5t50.5 -9q34 -13 49.5 -26.5t17 -31.5t-7.5 -47q-1 -3 -7.5 -18.5t-20.5 -37
t-38.5 -42.5t-61 -35t-88.5 -14q-65 0 -118 29.5t-83.5 79.5t-30.5 111q0 45 14 77.5t35 53.5t42.5 33t37 17t18.5 5l-7 -12v10q0 18 4 34t22.5 26t59.5 10zM239 491q59 0 77 -22t18 -75q0 -22 -4 -44t-24 -36.5t-68 -14.5q-59 0 -77.5 22.5t-18.5 74.5q0 23 4 44.5t24.5 36
t68.5 14.5z" />
    <glyph glyph-name="Agrave" unicode="&#xc0;" horiz-adv-x="711" 
d="M690 118q15 -30 16 -51t-13 -37t-45 -32q-48 -23 -74 -14.5t-49 57.5l-170 348l-168 -349q-24 -47 -50 -55.5t-73 14.5q-31 15 -45.5 31t-13.5 37t16 51l251 520q12 24 35.5 38.5t48.5 14.5q18 0 33.5 -6.5t28.5 -18.5t21 -29zM197 136l76 156h165l76 -156h-317zM397 725
l-157 50q-37 13 -43.5 33t5.5 60q13 44 30 54t54 0l153 -47q37 -12 44.5 -32.5t-5.5 -61.5q-13 -43 -29.5 -53t-51.5 -3z" />
    <glyph glyph-name="Aacute" unicode="&#xc1;" horiz-adv-x="711" 
d="M690 118q15 -30 16 -51t-13 -37t-45 -32q-48 -23 -74 -14.5t-49 57.5l-170 348l-168 -349q-24 -47 -50 -55.5t-73 14.5q-31 15 -45.5 31t-13.5 37t16 51l251 520q12 24 35.5 38.5t48.5 14.5q18 0 33.5 -6.5t28.5 -18.5t21 -29zM197 136l76 156h165l76 -156h-317zM272 710
q-18 0 -31 15t-23 46q-13 42 -5 62.5t44 31.5l184 54q18 0 31 -15t22 -46q14 -40 5 -61t-43 -32z" />
    <glyph glyph-name="Acircumflex" unicode="&#xc2;" horiz-adv-x="711" 
d="M690 118q15 -30 16 -51t-13 -37t-45 -32q-48 -23 -74 -14.5t-49 57.5l-170 348l-168 -349q-24 -47 -50 -55.5t-73 14.5q-31 15 -45.5 31t-13.5 37t16 51l251 520q12 24 35.5 38.5t48.5 14.5q18 0 33.5 -6.5t28.5 -18.5t21 -29zM197 136l76 156h165l76 -156h-317zM357 928
q8 0 14.5 -2t9.5 -3l129 -43q32 -10 39 -36t-9 -58q-13 -27 -30 -44t-34 -10l-119 45l-118 -43q-19 -7 -35.5 10.5t-30.5 42.5q-17 32 -10.5 57t39.5 36l130 43q2 1 9.5 3t15.5 2z" />
    <glyph glyph-name="Atilde" unicode="&#xc3;" horiz-adv-x="711" 
d="M690 118q15 -30 16 -51t-13 -37t-45 -32q-48 -23 -74 -14.5t-49 57.5l-170 348l-168 -349q-24 -47 -50 -55.5t-73 14.5q-31 15 -45.5 31t-13.5 37t16 51l251 520q12 24 35.5 38.5t48.5 14.5q18 0 33.5 -6.5t28.5 -18.5t21 -29zM197 136l76 156h165l76 -156h-317zM308 908
q26 0 39.5 -12t23 -24t20.5 -12q15 0 24 12t19.5 24t29.5 12q10 0 20 -4t21 -12q33 -22 40 -42.5t-11 -49.5q-12 -20 -33.5 -39t-46.5 -30.5t-48 -11.5q-25 0 -39.5 12.5t-24.5 25t-22 12.5q-27 0 -40 -10.5t-21 -20.5q-10 -13 -19.5 -17t-37.5 18q-31 24 -35.5 43t14.5 47
q14 20 36 38t46.5 29.5t44.5 11.5z" />
    <glyph glyph-name="Adieresis" unicode="&#xc4;" horiz-adv-x="711" 
d="M690 118q15 -30 16 -51t-13 -37t-45 -32q-48 -23 -74 -14.5t-49 57.5l-170 348l-168 -349q-24 -47 -50 -55.5t-73 14.5q-31 15 -45.5 31t-13.5 37t16 51l251 520q12 24 35.5 38.5t48.5 14.5q18 0 33.5 -6.5t28.5 -18.5t21 -29zM197 136l76 156h165l76 -156h-317zM484 744
q-46 0 -65 13.5t-23 35t-4 44.5t4 44t23.5 34t65.5 13t65 -13.5t23 -35t4 -44.5q0 -22 -4 -43t-23 -34.5t-66 -13.5zM233 744q-46 0 -65 13.5t-23 35t-4 44.5q1 23 4.5 44t23 34t65.5 13t65 -13.5t23 -35t4 -44.5q0 -22 -4 -43t-23 -34.5t-66 -13.5z" />
    <glyph glyph-name="Aring" unicode="&#xc5;" horiz-adv-x="711" 
d="M690 118q15 -30 16 -51t-13 -37t-45 -32q-48 -23 -74 -14.5t-49 57.5l-170 348l-168 -349q-24 -47 -50 -55.5t-73 14.5q-31 15 -45.5 31t-13.5 37t16 51l251 520q12 24 35.5 38.5t48.5 14.5q18 0 33.5 -6.5t28.5 -18.5t21 -29zM197 136l76 156h165l76 -156h-317zM356 739
q-35 0 -64.5 17.5t-47 47t-17.5 64.5q0 36 17.5 65.5t46.5 47t64 17.5q36 0 65.5 -17t47 -46.5t17.5 -65.5t-17.5 -65.5t-46.5 -47t-65 -17.5zM356 821q20 0 33.5 14t13.5 35q0 20 -13.5 33t-34.5 13q-19 0 -33 -13.5t-14 -33.5q0 -21 14 -34.5t34 -13.5z" />
    <glyph glyph-name="AE" unicode="&#xc6;" horiz-adv-x="1068" 
d="M595 -8q-24 0 -45 12.5t-33.5 34t-12.5 46.5v319l-349 -384q-23 -26 -45 -34t-43.5 0.5t-42.5 32.5q-23 29 -30 49t1 38t29 42l469 517q12 13 28.5 20t37.5 7h404q22 0 43 -4t34.5 -23t13.5 -65q0 -44 -13 -63.5t-33 -23.5t-41 -4h-279v-76h172q23 0 43.5 -4t34 -23.5
t13.5 -64.5t-13 -64t-34 -23t-45 -4h-171v-75h280q21 0 41 -4.5t32.5 -23.5t12.5 -64t-14 -64t-35 -23t-43 -4h-367zM238 129l142 157h140v-157h-282z" />
    <glyph glyph-name="Ccedilla" unicode="&#xc7;" horiz-adv-x="631" 
d="M376 -19q-39 0 -87 12.5t-96.5 39.5t-89 70t-65 103t-24.5 139q0 76 24.5 134t64.5 100t88.5 68t97.5 38.5t90 12.5q51 0 90 -12.5t63.5 -26t30.5 -17.5q20 -13 37.5 -28.5t17.5 -41.5q0 -13 -5.5 -27t-16.5 -29q-20 -28 -37.5 -41t-34.5 -13q-13 0 -25 6t-29 17
q-7 5 -18 11.5t-30 12t-50 5.5q-26 0 -56.5 -9.5t-57.5 -30t-44 -54t-17 -80.5q0 -48 17.5 -81t44.5 -53.5t57.5 -30t55.5 -9.5q26 0 44 4.5t32.5 12.5t26.5 16q11 8 24 14t26 6q17 0 34 -14t36 -43q11 -17 16.5 -31.5t5.5 -26.5q0 -25 -17.5 -40t-37.5 -27q-7 -4 -30 -18
t-62 -26t-94 -12zM349 -182q-29 0 -54 14.5t-29 36.5q0 15 11 27q11 13 19 18.5t16 5.5q13 0 19 -7t20 -7q5 0 14 5t9 18q0 14 -9 19t-15 5q-10 0 -18.5 -7.5t-21.5 -7.5q-12 0 -20.5 9t-13.5 16q-4 8 -7 14.5t-3 12.5q0 15 13.5 26.5t33 17.5t37.5 6q23 0 49 -12t44.5 -36
t18.5 -62q0 -33 -16 -58t-42 -39.5t-55 -14.5z" />
    <glyph glyph-name="Egrave" unicode="&#xc8;" horiz-adv-x="603" 
d="M129 -9q-45 0 -64 13.5t-23 35t-4 43.5v517q0 52 20.5 71.5t73.5 19.5h366q23 0 43.5 -4t34 -23t13.5 -65q0 -45 -13.5 -64t-34.5 -23t-44 -4h-276v-89h185q23 0 41 -3.5t29 -19.5t11 -56q0 -38 -11 -54.5t-30 -19.5t-42 -3h-183v-89h277q23 0 43.5 -4t34 -23t13.5 -65
q0 -45 -13.5 -64t-34.5 -23t-44 -4h-368zM307 725l-157 50q-37 13 -43.5 33t5.5 60q13 44 30 54t54 0l153 -47q37 -12 44.5 -32.5t-5.5 -61.5q-13 -43 -29.5 -53t-51.5 -3z" />
    <glyph glyph-name="Eacute" unicode="&#xc9;" horiz-adv-x="603" 
d="M129 -9q-45 0 -64 13.5t-23 35t-4 43.5v517q0 52 20.5 71.5t73.5 19.5h366q23 0 43.5 -4t34 -23t13.5 -65q0 -45 -13.5 -64t-34.5 -23t-44 -4h-276v-89h185q23 0 41 -3.5t29 -19.5t11 -56q0 -38 -11 -54.5t-30 -19.5t-42 -3h-183v-89h277q23 0 43.5 -4t34 -23t13.5 -65
q0 -45 -13.5 -64t-34.5 -23t-44 -4h-368zM260 720q-18 0 -31 15t-23 46q-13 42 -5 62.5t44 31.5l184 54q18 0 31 -15t22 -46q14 -40 5 -61t-43 -32z" />
    <glyph glyph-name="Ecircumflex" unicode="&#xca;" horiz-adv-x="603" 
d="M129 -9q-45 0 -64 13.5t-23 35t-4 43.5v517q0 52 20.5 71.5t73.5 19.5h366q23 0 43.5 -4t34 -23t13.5 -65q0 -45 -13.5 -64t-34.5 -23t-44 -4h-276v-89h185q23 0 41 -3.5t29 -19.5t11 -56q0 -38 -11 -54.5t-30 -19.5t-42 -3h-183v-89h277q23 0 43.5 -4t34 -23t13.5 -65
q0 -45 -13.5 -64t-34.5 -23t-44 -4h-368zM308 928q8 0 14.5 -2t9.5 -3l129 -43q32 -10 39 -36t-9 -58q-13 -27 -30 -44t-34 -10l-119 45l-118 -43q-19 -7 -35.5 10.5t-30.5 42.5q-17 32 -10.5 57t39.5 36l130 43q2 1 9.5 3t15.5 2z" />
    <glyph glyph-name="Edieresis" unicode="&#xcb;" horiz-adv-x="603" 
d="M129 -9q-45 0 -64 13.5t-23 35t-4 43.5v517q0 52 20.5 71.5t73.5 19.5h366q23 0 43.5 -4t34 -23t13.5 -65q0 -45 -13.5 -64t-34.5 -23t-44 -4h-276v-89h185q23 0 41 -3.5t29 -19.5t11 -56q0 -38 -11 -54.5t-30 -19.5t-42 -3h-183v-89h277q23 0 43.5 -4t34 -23t13.5 -65
q0 -45 -13.5 -64t-34.5 -23t-44 -4h-368zM435 744q-46 0 -65 13.5t-23 35t-4 44.5t4 44t23.5 34t65.5 13t65 -13.5t23 -35t4 -44.5q0 -22 -4 -43t-23 -34.5t-66 -13.5zM184 744q-46 0 -65 13.5t-23 35t-4 44.5q1 23 4.5 44t23 34t65.5 13t65 -13.5t23 -35t4 -44.5
q0 -22 -4 -43t-23 -34.5t-66 -13.5z" />
    <glyph glyph-name="Igrave" unicode="&#xcc;" horiz-adv-x="239" 
d="M119 -9q-45 0 -64 13.5t-23 35t-4 43.5v517q0 22 4 43t23 34.5t65 13.5t64.5 -13.5t22.5 -34.5t4 -44v-517q0 -22 -4 -43t-23 -34.5t-65 -13.5zM120 725l-157 50q-37 13 -43.5 33t5.5 60q13 44 30 54t54 0l153 -47q37 -12 44.5 -32.5t-5.5 -61.5q-13 -43 -29.5 -53
t-51.5 -3z" />
    <glyph glyph-name="Iacute" unicode="&#xcd;" horiz-adv-x="239" 
d="M119 -9q-45 0 -64 13.5t-23 35t-4 43.5v517q0 22 4 43t23 34.5t65 13.5t64.5 -13.5t22.5 -34.5t4 -44v-517q0 -22 -4 -43t-23 -34.5t-65 -13.5zM36 710q-18 0 -31 15t-23 46q-13 42 -5 62.5t44 31.5l184 54q18 0 31 -15t22 -46q14 -40 5 -61t-43 -32z" />
    <glyph glyph-name="Icircumflex" unicode="&#xce;" horiz-adv-x="239" 
d="M119 -9q-45 0 -64 13.5t-23 35t-4 43.5v517q0 22 4 43t23 34.5t65 13.5t64.5 -13.5t22.5 -34.5t4 -44v-517q0 -22 -4 -43t-23 -34.5t-65 -13.5zM121 928q8 0 14.5 -2t9.5 -3l129 -43q32 -10 39 -36t-9 -58q-13 -27 -30 -44t-34 -10l-119 45l-118 -43q-19 -7 -35.5 10.5
t-30.5 42.5q-17 32 -10.5 57t39.5 36l130 43q2 1 9.5 3t15.5 2z" />
    <glyph glyph-name="Idieresis" unicode="&#xcf;" horiz-adv-x="239" 
d="M119 -9q-45 0 -64 13.5t-23 35t-4 43.5v517q0 22 4 43t23 34.5t65 13.5t64.5 -13.5t22.5 -34.5t4 -44v-517q0 -22 -4 -43t-23 -34.5t-65 -13.5zM248 744q-46 0 -65 13.5t-23 35t-4 44.5t4 44t23.5 34t65.5 13t65 -13.5t23 -35t4 -44.5q0 -22 -4 -43t-23 -34.5t-66 -13.5z
M-3 744q-46 0 -65 13.5t-23 35t-4 44.5q1 23 4.5 44t23 34t65.5 13t65 -13.5t23 -35t4 -44.5q0 -22 -4 -43t-23 -34.5t-66 -13.5z" />
    <glyph glyph-name="Eth" unicode="&#xd0;" horiz-adv-x="752" 
d="M190 -8q-43 0 -62 13t-24 34t-5 45v517q0 22 4 43t23 34.5t65 12.5h172q71 0 134 -27t111.5 -74.5t76 -110.5t27.5 -134q0 -73 -27.5 -137t-76 -112.5t-112 -76t-136.5 -27.5h-170zM282 175h81q45 0 83 22.5t60.5 60t22.5 83.5t-22.5 84t-60.5 60.5t-84 22.5h-80v-333z
M96 264q-15 0 -33 3.5t-30.5 21t-12.5 59.5q0 41 13 57.5t31 20t33 3.5h221q16 0 34 -3.5t30.5 -20.5t12.5 -58t-12 -58.5t-29.5 -21t-35.5 -3.5h-222z" />
    <glyph glyph-name="Ntilde" unicode="&#xd1;" horiz-adv-x="670" 
d="M118 -9q-44 0 -63 13.5t-23 34.5t-4 44v519q0 22 4 42t23.5 33t64.5 13q44 0 60 -11t29 -28l250 -336v287q0 22 4.5 42t23.5 33t64 13q46 0 64.5 -13.5t22.5 -34.5t4 -44v-516q0 -22 -4 -43t-23 -34.5t-65 -13.5q-34 0 -51.5 5.5t-29.5 21.5l-259 342v-278q0 -22 -4 -43
t-23 -34.5t-65 -13.5zM287 908q26 0 39.5 -12t23 -24t20.5 -12q15 0 24 12t19.5 24t29.5 12q10 0 20 -4t21 -12q33 -22 40 -42.5t-11 -49.5q-12 -20 -33.5 -39t-46.5 -30.5t-48 -11.5q-25 0 -39.5 12.5t-24.5 25t-22 12.5q-27 0 -40 -10.5t-21 -20.5q-10 -13 -19.5 -17
t-37.5 18q-31 24 -35.5 43t14.5 47q14 20 36 38t46.5 29.5t44.5 11.5z" />
    <glyph glyph-name="Ograve" unicode="&#xd2;" horiz-adv-x="721" 
d="M365 -20q-73 0 -136.5 27.5t-111.5 76.5t-75.5 113.5t-27.5 137.5q0 76 26.5 142t73.5 116t109.5 78t133.5 28q73 0 136.5 -27.5t111.5 -76.5t75 -114.5t27 -141.5q0 -74 -26.5 -139t-74 -114.5t-109 -77.5t-132.5 -28zM360 163q34 0 64 13.5t52.5 37t35 56t12.5 69.5
t-13 69t-35.5 56.5t-52 38t-62.5 13.5q-34 0 -63.5 -13.5t-52 -38t-35.5 -56.5t-13 -69q0 -36 13 -68t35.5 -56.5t52 -38t62.5 -13.5zM361 725l-157 50q-37 13 -43.5 33t5.5 60q13 44 30 54t54 0l153 -47q37 -12 44.5 -32.5t-5.5 -61.5q-13 -43 -29.5 -53t-51.5 -3z" />
    <glyph glyph-name="Oacute" unicode="&#xd3;" horiz-adv-x="721" 
d="M365 -20q-73 0 -136.5 27.5t-111.5 76.5t-75.5 113.5t-27.5 137.5q0 76 26.5 142t73.5 116t109.5 78t133.5 28q73 0 136.5 -27.5t111.5 -76.5t75 -114.5t27 -141.5q0 -74 -26.5 -139t-74 -114.5t-109 -77.5t-132.5 -28zM360 163q34 0 64 13.5t52.5 37t35 56t12.5 69.5
t-13 69t-35.5 56.5t-52 38t-62.5 13.5q-34 0 -63.5 -13.5t-52 -38t-35.5 -56.5t-13 -69q0 -36 13 -68t35.5 -56.5t52 -38t62.5 -13.5zM277 710q-18 0 -31 15t-23 46q-13 42 -5 62.5t44 31.5l184 54q18 0 31 -15t22 -46q14 -40 5 -61t-43 -32z" />
    <glyph glyph-name="Ocircumflex" unicode="&#xd4;" horiz-adv-x="721" 
d="M365 -20q-73 0 -136.5 27.5t-111.5 76.5t-75.5 113.5t-27.5 137.5q0 76 26.5 142t73.5 116t109.5 78t133.5 28q73 0 136.5 -27.5t111.5 -76.5t75 -114.5t27 -141.5q0 -74 -26.5 -139t-74 -114.5t-109 -77.5t-132.5 -28zM360 163q34 0 64 13.5t52.5 37t35 56t12.5 69.5
t-13 69t-35.5 56.5t-52 38t-62.5 13.5q-34 0 -63.5 -13.5t-52 -38t-35.5 -56.5t-13 -69q0 -36 13 -68t35.5 -56.5t52 -38t62.5 -13.5zM362 928q8 0 14.5 -2t9.5 -3l129 -43q32 -10 39 -36t-9 -58q-13 -27 -30 -44t-34 -10l-119 45l-118 -43q-19 -7 -35.5 10.5t-30.5 42.5
q-17 32 -10.5 57t39.5 36l130 43q2 1 9.5 3t15.5 2z" />
    <glyph glyph-name="Otilde" unicode="&#xd5;" horiz-adv-x="721" 
d="M365 -20q-73 0 -136.5 27.5t-111.5 76.5t-75.5 113.5t-27.5 137.5q0 76 26.5 142t73.5 116t109.5 78t133.5 28q73 0 136.5 -27.5t111.5 -76.5t75 -114.5t27 -141.5q0 -74 -26.5 -139t-74 -114.5t-109 -77.5t-132.5 -28zM360 163q34 0 64 13.5t52.5 37t35 56t12.5 69.5
t-13 69t-35.5 56.5t-52 38t-62.5 13.5q-34 0 -63.5 -13.5t-52 -38t-35.5 -56.5t-13 -69q0 -36 13 -68t35.5 -56.5t52 -38t62.5 -13.5zM313 908q26 0 39.5 -12t23 -24t20.5 -12q15 0 24 12t19.5 24t29.5 12q10 0 20 -4t21 -12q33 -22 40 -42.5t-11 -49.5q-12 -20 -33.5 -39
t-46.5 -30.5t-48 -11.5q-25 0 -39.5 12.5t-24.5 25t-22 12.5q-27 0 -40 -10.5t-21 -20.5q-10 -13 -19.5 -17t-37.5 18q-31 24 -35.5 43t14.5 47q14 20 36 38t46.5 29.5t44.5 11.5z" />
    <glyph glyph-name="Odieresis" unicode="&#xd6;" horiz-adv-x="721" 
d="M365 -20q-73 0 -136.5 27.5t-111.5 76.5t-75.5 113.5t-27.5 137.5q0 76 26.5 142t73.5 116t109.5 78t133.5 28q73 0 136.5 -27.5t111.5 -76.5t75 -114.5t27 -141.5q0 -74 -26.5 -139t-74 -114.5t-109 -77.5t-132.5 -28zM360 163q34 0 64 13.5t52.5 37t35 56t12.5 69.5
t-13 69t-35.5 56.5t-52 38t-62.5 13.5q-34 0 -63.5 -13.5t-52 -38t-35.5 -56.5t-13 -69q0 -36 13 -68t35.5 -56.5t52 -38t62.5 -13.5zM489 744q-46 0 -65 13.5t-23 35t-4 44.5t4 44t23.5 34t65.5 13t65 -13.5t23 -35t4 -44.5q0 -22 -4 -43t-23 -34.5t-66 -13.5zM238 744
q-46 0 -65 13.5t-23 35t-4 44.5q1 23 4.5 44t23 34t65.5 13t65 -13.5t23 -35t4 -44.5q0 -22 -4 -43t-23 -34.5t-66 -13.5z" />
    <glyph glyph-name="multiply" unicode="&#xd7;" horiz-adv-x="485" 
d="M360 245l77 -77q23 -21 30.5 -39.5t0.5 -37t-29 -40.5t-40.5 -29.5t-37 0t-40.5 29.5l-78 78l-78 -78q-22 -22 -40.5 -29.5t-37 0t-40.5 29.5t-29 40.5t1 37t30 39.5l77 77l-80 80q-21 21 -28 39t0 36.5t29 40.5q23 21 41.5 28t37 0t39.5 -28l78 -78l78 78q21 21 39.5 28
t37.5 0t41 -28q22 -22 29 -40.5t0 -36.5t-28 -39z" />
    <glyph glyph-name="Oslash" unicode="&#xd8;" horiz-adv-x="742" 
d="M375 -20q-73 0 -136.5 27.5t-111.5 76.5t-75.5 113.5t-27.5 137.5q0 76 26.5 142t73.5 116t109.5 78t133.5 28q73 0 136.5 -27.5t111.5 -76.5t75 -114.5t27 -141.5q0 -74 -26.5 -139t-74 -114.5t-109 -77.5t-132.5 -28zM370 163q34 0 64 13.5t52.5 37t35 56t12.5 69.5
t-13 69t-35.5 56.5t-52 38t-62.5 13.5q-34 0 -64 -13.5t-52.5 -38t-35 -56.5t-12.5 -69t13 -69t35.5 -56t52 -37.5t62.5 -13.5zM185 -46q-46 22 -54.5 43.5t10.5 62.5l300 627q20 42 44.5 49t68.5 -15q49 -24 56 -46t-14 -65l-299 -621q-20 -42 -43.5 -49t-68.5 14z" />
    <glyph glyph-name="Ugrave" unicode="&#xd9;" horiz-adv-x="675" 
d="M336 -20q-76 0 -133.5 30.5t-96.5 80.5t-58.5 110t-19.5 119v280q0 23 4 44t23 34.5t65 13.5t65 -13.5t23 -34.5t4 -45v-279q0 -33 11 -69t38.5 -61.5t77.5 -25.5q38 0 66 19.5t43.5 55t15.5 82.5v284q0 22 4.5 41.5t23.5 32.5t64 13q46 0 64.5 -14t22.5 -35t4 -44v-281
q0 -60 -20 -119.5t-59.5 -109t-97.5 -79.5t-134 -30zM338 725l-157 50q-37 13 -43.5 33t5.5 60q13 44 30 54t54 0l153 -47q37 -12 44.5 -32.5t-5.5 -61.5q-13 -43 -29.5 -53t-51.5 -3z" />
    <glyph glyph-name="Uacute" unicode="&#xda;" horiz-adv-x="675" 
d="M336 -20q-76 0 -133.5 30.5t-96.5 80.5t-58.5 110t-19.5 119v280q0 23 4 44t23 34.5t65 13.5t65 -13.5t23 -34.5t4 -45v-279q0 -33 11 -69t38.5 -61.5t77.5 -25.5q38 0 66 19.5t43.5 55t15.5 82.5v284q0 22 4.5 41.5t23.5 32.5t64 13q46 0 64.5 -14t22.5 -35t4 -44v-281
q0 -60 -20 -119.5t-59.5 -109t-97.5 -79.5t-134 -30zM254 710q-18 0 -31 15t-23 46q-13 42 -5 62.5t44 31.5l184 54q18 0 31 -15t22 -46q14 -40 5 -61t-43 -32z" />
    <glyph glyph-name="Ucircumflex" unicode="&#xdb;" horiz-adv-x="675" 
d="M336 -20q-76 0 -133.5 30.5t-96.5 80.5t-58.5 110t-19.5 119v280q0 23 4 44t23 34.5t65 13.5t65 -13.5t23 -34.5t4 -45v-279q0 -33 11 -69t38.5 -61.5t77.5 -25.5q38 0 66 19.5t43.5 55t15.5 82.5v284q0 22 4.5 41.5t23.5 32.5t64 13q46 0 64.5 -14t22.5 -35t4 -44v-281
q0 -60 -20 -119.5t-59.5 -109t-97.5 -79.5t-134 -30zM339 928q8 0 14.5 -2t9.5 -3l129 -43q32 -10 39 -36t-9 -58q-13 -27 -30 -44t-34 -10l-119 45l-118 -43q-19 -7 -35.5 10.5t-30.5 42.5q-17 32 -10.5 57t39.5 36l130 43q2 1 9.5 3t15.5 2z" />
    <glyph glyph-name="Udieresis" unicode="&#xdc;" horiz-adv-x="675" 
d="M336 -20q-76 0 -133.5 30.5t-96.5 80.5t-58.5 110t-19.5 119v280q0 23 4 44t23 34.5t65 13.5t65 -13.5t23 -34.5t4 -45v-279q0 -33 11 -69t38.5 -61.5t77.5 -25.5q38 0 66 19.5t43.5 55t15.5 82.5v284q0 22 4.5 41.5t23.5 32.5t64 13q46 0 64.5 -14t22.5 -35t4 -44v-281
q0 -60 -20 -119.5t-59.5 -109t-97.5 -79.5t-134 -30zM466 744q-46 0 -65 13.5t-23 35t-4 44.5t4 44t23.5 34t65.5 13t65 -13.5t23 -35t4 -44.5q0 -22 -4 -43t-23 -34.5t-66 -13.5zM215 744q-46 0 -65 13.5t-23 35t-4 44.5q1 23 4.5 44t23 34t65.5 13t65 -13.5t23 -35
t4 -44.5q0 -22 -4 -43t-23 -34.5t-66 -13.5z" />
    <glyph glyph-name="Yacute" unicode="&#xdd;" horiz-adv-x="638" 
d="M584 676q44 -30 48 -57.5t-22 -65.5l-199 -298v-175q0 -22 -4 -43t-23 -34.5t-65 -13.5t-65 13.5t-23 35t-4 44.5v173l-199 298q-28 39 -22 67t49 56q31 21 53 24.5t40 -9t35 -40.5l133 -214l139 214q19 29 36.5 41t39.5 8t53 -24zM235 710q-18 0 -31 15t-23 46
q-13 42 -5 62.5t44 31.5l184 54q18 0 31 -15t22 -46q14 -40 5 -61t-43 -32z" />
    <glyph glyph-name="Thorn" unicode="&#xde;" horiz-adv-x="606" 
d="M131 -8q-45 0 -64 13.5t-23 35t-4 43.5v516q0 22 4 43t23 34.5t65 13.5t64.5 -13.5t22.5 -34.5t4 -44v-2h108q38 0 82 -15.5t83.5 -47.5t64.5 -80t25 -114q0 -65 -25 -113t-64.5 -79.5t-83.5 -47t-83 -15.5h-107v-2q0 -22 -4 -43t-23 -34.5t-65 -13.5zM223 268h108
q13 0 30 6.5t30 22.5t13 44q0 21 -10 37.5t-26.5 26t-37.5 9.5h-107v-146z" />
    <glyph glyph-name="germandbls" unicode="&#xdf;" horiz-adv-x="589" 
d="M117 -39q-44 0 -63 13.5t-22.5 34t-3.5 42.5v431q0 82 26.5 132t82.5 72.5t143 22.5q69 0 116.5 -16t71.5 -46.5t24 -75.5t-12 -74.5t-27.5 -48.5t-27.5 -31t-12 -21q0 -17 16.5 -29.5t40.5 -27.5t48 -36t40.5 -54.5t16.5 -84.5q0 -44 -11 -77t-33.5 -55t-56.5 -33
t-79 -11q-17 0 -37.5 2t-43.5 5q-31 5 -55.5 18.5t-24.5 51.5q0 23 6.5 48t20 42.5t33.5 17.5q16 0 31 -6t29.5 -12.5t26.5 -6.5q8 0 13 4.5t7.5 13.5t2.5 24q0 10 -15.5 21t-38.5 25t-46.5 34t-39 47t-15.5 64q0 40 10.5 64t23.5 39t23.5 27t10.5 28q0 5 -3.5 8t-11 4.5
t-20.5 1.5q-19 0 -33 -4t-23.5 -11.5t-14 -19.5t-4.5 -28v-441q0 -22 -4 -42t-22.5 -33t-63.5 -13z" />
    <glyph glyph-name="agrave" unicode="&#xe0;" horiz-adv-x="557" 
d="M436 -7q-45 0 -66.5 15t-20.5 34h14q-5 -7 -19.5 -18.5t-38.5 -21t-59 -9.5q-45 0 -86.5 20.5t-74 56.5t-51.5 81.5t-19 95.5q0 49 19 94t52 80.5t74 56t86 20.5q34 0 57.5 -10t38 -22t19.5 -20h-11q-1 25 20.5 39t66.5 14t63.5 -13.5t22.5 -34.5t4 -43v-325
q0 -22 -4 -43t-22.5 -34t-64.5 -13zM271 174q19 0 34.5 10t25 26.5t9.5 35.5q0 20 -9.5 36t-25.5 26t-36 10t-36.5 -10t-26.5 -26.5t-10 -36.5q0 -19 10.5 -35t27.5 -26t37 -10zM319 525l-157 50q-37 13 -43.5 33t5.5 60q13 44 30 54t54 0l153 -47q37 -12 44.5 -32.5
t-5.5 -61.5q-13 -43 -29.5 -53t-51.5 -3z" />
    <glyph glyph-name="aacute" unicode="&#xe1;" horiz-adv-x="557" 
d="M436 -7q-45 0 -66.5 15t-20.5 34h14q-5 -7 -19.5 -18.5t-38.5 -21t-59 -9.5q-45 0 -86.5 20.5t-74 56.5t-51.5 81.5t-19 95.5q0 49 19 94t52 80.5t74 56t86 20.5q34 0 57.5 -10t38 -22t19.5 -20h-11q-1 25 20.5 39t66.5 14t63.5 -13.5t22.5 -34.5t4 -43v-325
q0 -22 -4 -43t-22.5 -34t-64.5 -13zM271 174q19 0 34.5 10t25 26.5t9.5 35.5q0 20 -9.5 36t-25.5 26t-36 10t-36.5 -10t-26.5 -26.5t-10 -36.5q0 -19 10.5 -35t27.5 -26t37 -10zM231 520q-18 0 -31 15t-23 46q-13 42 -5 62.5t44 31.5l184 54q18 0 31 -15t22 -46
q14 -40 5 -61t-43 -32z" />
    <glyph glyph-name="acircumflex" unicode="&#xe2;" horiz-adv-x="557" 
d="M436 -7q-45 0 -66.5 15t-20.5 34h14q-5 -7 -19.5 -18.5t-38.5 -21t-59 -9.5q-45 0 -86.5 20.5t-74 56.5t-51.5 81.5t-19 95.5q0 49 19 94t52 80.5t74 56t86 20.5q34 0 57.5 -10t38 -22t19.5 -20h-11q-1 25 20.5 39t66.5 14t63.5 -13.5t22.5 -34.5t4 -43v-325
q0 -22 -4 -43t-22.5 -34t-64.5 -13zM271 174q19 0 34.5 10t25 26.5t9.5 35.5q0 20 -9.5 36t-25.5 26t-36 10t-36.5 -10t-26.5 -26.5t-10 -36.5q0 -19 10.5 -35t27.5 -26t37 -10zM277 728q8 0 14.5 -2t9.5 -3l129 -43q32 -10 39 -36t-9 -58q-13 -27 -30 -44t-34 -10l-119 45
l-118 -43q-19 -7 -35.5 10.5t-30.5 42.5q-17 32 -10.5 57t39.5 36l130 43q2 1 9.5 3t15.5 2z" />
    <glyph glyph-name="atilde" unicode="&#xe3;" horiz-adv-x="557" 
d="M436 -7q-45 0 -66.5 15t-20.5 34h14q-5 -7 -19.5 -18.5t-38.5 -21t-59 -9.5q-45 0 -86.5 20.5t-74 56.5t-51.5 81.5t-19 95.5q0 49 19 94t52 80.5t74 56t86 20.5q34 0 57.5 -10t38 -22t19.5 -20h-11q-1 25 20.5 39t66.5 14t63.5 -13.5t22.5 -34.5t4 -43v-325
q0 -22 -4 -43t-22.5 -34t-64.5 -13zM271 174q19 0 34.5 10t25 26.5t9.5 35.5q0 20 -9.5 36t-25.5 26t-36 10t-36.5 -10t-26.5 -26.5t-10 -36.5q0 -19 10.5 -35t27.5 -26t37 -10zM226 728q26 0 39.5 -12t23 -24t20.5 -12q15 0 24 12t19.5 24t29.5 12q10 0 20 -4t21 -12
q33 -22 40 -42.5t-11 -49.5q-12 -20 -33.5 -39t-46.5 -30.5t-48 -11.5q-25 0 -39.5 12.5t-24.5 25t-22 12.5q-27 0 -40 -10.5t-21 -20.5q-10 -13 -19.5 -17t-37.5 18q-31 24 -35.5 43t14.5 47q14 20 36 38t46.5 29.5t44.5 11.5z" />
    <glyph glyph-name="adieresis" unicode="&#xe4;" horiz-adv-x="557" 
d="M436 -7q-45 0 -66.5 15t-20.5 34h14q-5 -7 -19.5 -18.5t-38.5 -21t-59 -9.5q-45 0 -86.5 20.5t-74 56.5t-51.5 81.5t-19 95.5q0 49 19 94t52 80.5t74 56t86 20.5q34 0 57.5 -10t38 -22t19.5 -20h-11q-1 25 20.5 39t66.5 14t63.5 -13.5t22.5 -34.5t4 -43v-325
q0 -22 -4 -43t-22.5 -34t-64.5 -13zM271 174q19 0 34.5 10t25 26.5t9.5 35.5q0 20 -9.5 36t-25.5 26t-36 10t-36.5 -10t-26.5 -26.5t-10 -36.5q0 -19 10.5 -35t27.5 -26t37 -10zM406 544q-46 0 -65 13.5t-23 35t-4 44.5t4 44t23.5 34t65.5 13t65 -13.5t23 -35t4 -44.5
q0 -22 -4 -43t-23 -34.5t-66 -13.5zM155 544q-46 0 -65 13.5t-23 35t-4 44.5q1 23 4.5 44t23 34t65.5 13t65 -13.5t23 -35t4 -44.5q0 -22 -4 -43t-23 -34.5t-66 -13.5z" />
    <glyph glyph-name="aring" unicode="&#xe5;" horiz-adv-x="557" 
d="M436 -7q-45 0 -66.5 15t-20.5 34h14q-5 -7 -19.5 -18.5t-38.5 -21t-59 -9.5q-45 0 -86.5 20.5t-74 56.5t-51.5 81.5t-19 95.5q0 49 19 94t52 80.5t74 56t86 20.5q34 0 57.5 -10t38 -22t19.5 -20h-11q-1 25 20.5 39t66.5 14t63.5 -13.5t22.5 -34.5t4 -43v-325
q0 -22 -4 -43t-22.5 -34t-64.5 -13zM271 174q19 0 34.5 10t25 26.5t9.5 35.5q0 20 -9.5 36t-25.5 26t-36 10t-36.5 -10t-26.5 -26.5t-10 -36.5q0 -19 10.5 -35t27.5 -26t37 -10zM276 525q-35 0 -64.5 17.5t-47 47t-17.5 64.5q0 36 17.5 65.5t46.5 47t64 17.5q36 0 65.5 -17
t47 -46.5t17.5 -65.5t-17.5 -65.5t-46.5 -47t-65 -17.5zM276 607q20 0 33.5 14t13.5 35q0 20 -13.5 33t-34.5 13q-19 0 -33 -13.5t-14 -33.5q0 -21 14 -34.5t34 -13.5z" />
    <glyph glyph-name="ae" unicode="&#xe6;" horiz-adv-x="846" 
d="M255 507q31 0 60.5 -7.5t56 -21.5t49.5 -35q24 20 53 33.5t62 20.5t68 7q59 0 102 -19t71 -49t41.5 -64t13.5 -64q0 -56 -27.5 -89.5t-72.5 -33.5h-206q3 -9 11 -16.5t19.5 -13.5t25.5 -9.5t29 -3.5q28 0 46.5 3.5t31 8.5t23.5 8.5t24 3.5q18 0 33 -11t26 -34
q6 -12 9.5 -24t3.5 -23q0 -32 -30.5 -52t-77.5 -29t-96 -9q-41 0 -77 8.5t-66.5 25t-54.5 40.5q-18 -18 -44 -35.5t-66.5 -29t-102.5 -11.5q-88 0 -133.5 39.5t-45.5 117.5q0 41 24 70t69 45t107 16q15 0 29 -1t27 -3.5t24.5 -5.5t21.5 -7.5t19 -9.5q-2 32 -11 53t-25 31.5
t-41 10.5q-10 0 -18.5 -1.5t-16 -4t-14.5 -7.5t-14 -12q-34 -36 -68.5 -36t-62.5 33q-37 43 -37 70.5t36 61.5q15 14 42.5 29t65.5 25.5t84 10.5zM525 286h106q11 0 17.5 5t6.5 15q0 12 -6.5 20.5t-18 13t-28.5 4.5q-16 0 -32.5 -8.5t-28.5 -22t-16 -27.5zM228 111
q17 0 32.5 3t30 8.5t26.5 13t21 16.5q-9 3 -23.5 6t-32.5 5.5t-40 2.5q-23 0 -38 -2.5t-22 -7t-7 -12.5q0 -17 12.5 -25t40.5 -8z" />
    <glyph glyph-name="ccedilla" unicode="&#xe7;" horiz-adv-x="487" 
d="M287 -14q-41 0 -86.5 16.5t-85.5 49t-65 81.5t-25 114q0 64 25 112.5t64.5 80.5t85 48.5t85.5 16.5q38 0 66 -8t46 -17.5t26 -14.5q20 -12 37.5 -27.5t17.5 -41.5q0 -13 -5 -26.5t-16 -30.5q-36 -55 -72 -55q-16 0 -28 5.5t-22 12.5t-21.5 12.5t-28.5 5.5q-20 0 -37 -10
t-27 -26.5t-10 -37.5t10 -38t26.5 -27t35.5 -10q14 0 23.5 3t14.5 6.5t6 3.5q14 8 26.5 15t25.5 7q17 0 35 -12.5t40 -40.5q21 -26 23.5 -48.5t-11.5 -42t-43 -37.5q-3 -2 -20.5 -11.5t-46.5 -18.5t-69 -9zM269 -192q-29 0 -54 14.5t-29 36.5q0 15 11 27q11 13 19 18.5
t16 5.5q13 0 19 -7t20 -7q5 0 14 5t9 18q0 14 -9 19t-15 5q-10 0 -18.5 -7.5t-21.5 -7.5q-12 0 -20.5 9t-13.5 16q-4 8 -7 14.5t-3 12.5q0 15 13.5 26.5t33 17.5t37.5 6q23 0 49 -12t44.5 -36t18.5 -62q0 -33 -16 -58t-42 -39.5t-55 -14.5z" />
    <glyph glyph-name="egrave" unicode="&#xe8;" horiz-adv-x="535" 
d="M288 -20q-75 0 -127 24.5t-84 64t-47 85.5t-15 89q0 79 35 139t97 94t142 34q62 0 106 -20t71.5 -51t40.5 -66t13 -65q0 -57 -28 -87t-72 -30h-213q4 -16 16.5 -27.5t31.5 -18t41 -6.5t39 2.5t29.5 6.5t23 8t19 6.5t16.5 2.5q18 0 33 -12t27 -36q7 -13 10 -24.5t3 -21.5
q0 -30 -24.5 -50t-70.5 -30.5t-113 -10.5zM207 285h112q14 0 20.5 6t6.5 18q0 13 -7.5 22t-20.5 13.5t-31 4.5q-24 0 -42 -9.5t-27.5 -24t-10.5 -30.5zM309 525l-157 50q-37 13 -43.5 33t5.5 60q13 44 30 54t54 0l153 -47q37 -12 44.5 -32.5t-5.5 -61.5q-13 -43 -29.5 -53
t-51.5 -3z" />
    <glyph glyph-name="eacute" unicode="&#xe9;" horiz-adv-x="535" 
d="M288 -20q-75 0 -127 24.5t-84 64t-47 85.5t-15 89q0 79 35 139t97 94t142 34q62 0 106 -20t71.5 -51t40.5 -66t13 -65q0 -57 -28 -87t-72 -30h-213q4 -16 16.5 -27.5t31.5 -18t41 -6.5t39 2.5t29.5 6.5t23 8t19 6.5t16.5 2.5q18 0 33 -12t27 -36q7 -13 10 -24.5t3 -21.5
q0 -30 -24.5 -50t-70.5 -30.5t-113 -10.5zM207 285h112q14 0 20.5 6t6.5 18q0 13 -7.5 22t-20.5 13.5t-31 4.5q-24 0 -42 -9.5t-27.5 -24t-10.5 -30.5zM221 520q-18 0 -31 15t-23 46q-13 42 -5 62.5t44 31.5l184 54q18 0 31 -15t22 -46q14 -40 5 -61t-43 -32z" />
    <glyph glyph-name="ecircumflex" unicode="&#xea;" horiz-adv-x="535" 
d="M288 -20q-75 0 -127 24.5t-84 64t-47 85.5t-15 89q0 79 35 139t97 94t142 34q62 0 106 -20t71.5 -51t40.5 -66t13 -65q0 -57 -28 -87t-72 -30h-213q4 -16 16.5 -27.5t31.5 -18t41 -6.5t39 2.5t29.5 6.5t23 8t19 6.5t16.5 2.5q18 0 33 -12t27 -36q7 -13 10 -24.5t3 -21.5
q0 -30 -24.5 -50t-70.5 -30.5t-113 -10.5zM207 285h112q14 0 20.5 6t6.5 18q0 13 -7.5 22t-20.5 13.5t-31 4.5q-24 0 -42 -9.5t-27.5 -24t-10.5 -30.5zM267 728q8 0 14.5 -2t9.5 -3l129 -43q32 -10 39 -36t-9 -58q-13 -27 -30 -44t-34 -10l-119 45l-118 -43
q-19 -7 -35.5 10.5t-30.5 42.5q-17 32 -10.5 57t39.5 36l130 43q2 1 9.5 3t15.5 2z" />
    <glyph glyph-name="edieresis" unicode="&#xeb;" horiz-adv-x="535" 
d="M288 -20q-75 0 -127 24.5t-84 64t-47 85.5t-15 89q0 79 35 139t97 94t142 34q62 0 106 -20t71.5 -51t40.5 -66t13 -65q0 -57 -28 -87t-72 -30h-213q4 -16 16.5 -27.5t31.5 -18t41 -6.5t39 2.5t29.5 6.5t23 8t19 6.5t16.5 2.5q18 0 33 -12t27 -36q7 -13 10 -24.5t3 -21.5
q0 -30 -24.5 -50t-70.5 -30.5t-113 -10.5zM207 285h112q14 0 20.5 6t6.5 18q0 13 -7.5 22t-20.5 13.5t-31 4.5q-24 0 -42 -9.5t-27.5 -24t-10.5 -30.5zM396 544q-46 0 -65 13.5t-23 35t-4 44.5t4 44t23.5 34t65.5 13t65 -13.5t23 -35t4 -44.5q0 -22 -4 -43t-23 -34.5
t-66 -13.5zM145 544q-46 0 -65 13.5t-23 35t-4 44.5q1 23 4.5 44t23 34t65.5 13t65 -13.5t23 -35t4 -44.5q0 -22 -4 -43t-23 -34.5t-66 -13.5z" />
    <glyph glyph-name="igrave" unicode="&#xec;" horiz-adv-x="237" 
d="M118 -9q-45 0 -64 13.5t-22.5 34.5t-3.5 43v326q0 22 4 42.5t23 34t64 13.5t63.5 -13.5t22.5 -34.5t4 -44v-325q0 -22 -4 -43t-22.5 -34t-64.5 -13zM160 525l-157 50q-37 13 -43.5 33t5.5 60q13 44 30 54t54 0l153 -47q37 -12 44.5 -32.5t-5.5 -61.5q-13 -43 -29.5 -53
t-51.5 -3z" />
    <glyph glyph-name="iacute" unicode="&#xed;" horiz-adv-x="237" 
d="M118 -9q-45 0 -64 13.5t-22.5 34.5t-3.5 43v326q0 22 4 42.5t23 34t64 13.5t63.5 -13.5t22.5 -34.5t4 -44v-325q0 -22 -4 -43t-22.5 -34t-64.5 -13zM72 520q-18 0 -31 15t-23 46q-13 42 -5 62.5t44 31.5l184 54q18 0 31 -15t22 -46q14 -40 5 -61t-43 -32z" />
    <glyph glyph-name="icircumflex" unicode="&#xee;" horiz-adv-x="237" 
d="M118 -9q-45 0 -64 13.5t-22.5 34.5t-3.5 43v326q0 22 4 42.5t23 34t64 13.5t63.5 -13.5t22.5 -34.5t4 -44v-325q0 -22 -4 -43t-22.5 -34t-64.5 -13zM118 728q8 0 14.5 -2t9.5 -3l129 -43q32 -10 39 -36t-9 -58q-13 -27 -30 -44t-34 -10l-119 45l-118 -43
q-19 -7 -35.5 10.5t-30.5 42.5q-17 32 -10.5 57t39.5 36l130 43q2 1 9.5 3t15.5 2z" />
    <glyph glyph-name="idieresis" unicode="&#xef;" horiz-adv-x="237" 
d="M118 -9q-45 0 -64 13.5t-22.5 34.5t-3.5 43v326q0 22 4 42.5t23 34t64 13.5t63.5 -13.5t22.5 -34.5t4 -44v-325q0 -22 -4 -43t-22.5 -34t-64.5 -13zM247 544q-46 0 -65 13.5t-23 35t-4 44.5t4 44t23.5 34t65.5 13t65 -13.5t23 -35t4 -44.5q0 -22 -4 -43t-23 -34.5
t-66 -13.5zM-4 544q-46 0 -65 13.5t-23 35t-4 44.5q1 23 4.5 44t23 34t65.5 13t65 -13.5t23 -35t4 -44.5q0 -22 -4 -43t-23 -34.5t-66 -13.5z" />
    <glyph glyph-name="eth" unicode="&#xf0;" horiz-adv-x="564" 
d="M359 747q18 -11 24.5 -21.5t4.5 -21.5t-11 -26l-17 -22q50 -38 86 -85.5t58 -103t30.5 -116.5t3.5 -126q-3 -49 -24.5 -93t-57 -78t-80 -53t-94.5 -19q-45 0 -90.5 18t-83.5 51.5t-61 80.5t-23 105q0 56 22.5 101.5t59 78.5t79 51t82.5 18q31 0 54.5 -5t39.5 -13
q-18 25 -39.5 44.5t-44.5 32.5l-20 -28q-11 -16 -20.5 -21.5t-20 -2.5t-24.5 10q-20 12 -27.5 22t-4.5 21t14 26l12 16q-22 11 -31.5 20.5t-9.5 26.5q0 10 3.5 21t10.5 24q11 23 25.5 33.5t31.5 10.5q11 0 21 -3t19.5 -7t17.5 -9l17 25q11 16 20 23.5t20 6.5t28 -13z
M281 161q15 0 33.5 7t32.5 24.5t14 47.5q0 24 -10 41.5t-28.5 27t-42.5 9.5q-21 0 -38.5 -10.5t-28 -28t-10.5 -40.5q0 -30 13.5 -47t32 -24t32.5 -7z" />
    <glyph glyph-name="ntilde" unicode="&#xf1;" horiz-adv-x="566" 
d="M120 -8q-45 0 -64 13.5t-22.5 34.5t-3.5 43v329q0 22 4 42t23 32.5t64 12.5q41 0 59.5 -10.5t23.5 -25.5t4.5 -27.5t1.5 -15.5l-8 -6q-1 15 11.5 30t33 27.5t44 20t44.5 7.5q50 0 88 -19t63.5 -53.5t38.5 -80.5t13 -100v-164q0 -22 -4 -43t-22.5 -34t-64.5 -13t-65 13.5
t-23 34.5t-4 43v163q0 23 -8.5 39t-24 24.5t-38.5 8.5q-22 0 -38.5 -9t-25.5 -25t-9 -38v-164q0 -22 -4 -43t-22.5 -34t-64.5 -13zM232 728q26 0 39.5 -12t23 -24t20.5 -12q15 0 24 12t19.5 24t29.5 12q10 0 20 -4t21 -12q33 -22 40 -42.5t-11 -49.5q-12 -20 -33.5 -39
t-46.5 -30.5t-48 -11.5q-25 0 -39.5 12.5t-24.5 25t-22 12.5q-27 0 -40 -10.5t-21 -20.5q-10 -13 -19.5 -17t-37.5 18q-31 24 -35.5 43t14.5 47q14 20 36 38t46.5 29.5t44.5 11.5z" />
    <glyph glyph-name="ograve" unicode="&#xf2;" horiz-adv-x="558" 
d="M280 -18q-46 0 -93 18.5t-86.5 53t-63 83t-23.5 108.5q0 55 21 103t57.5 84.5t84 57.5t101.5 21q74 0 134 -35.5t96 -95.5t36 -134q0 -63 -24 -112t-63 -83t-85.5 -51.5t-91.5 -17.5zM278 165q15 0 34.5 7.5t34 25.5t14.5 49q0 25 -10.5 43t-29.5 28t-44 10
q-22 0 -40 -10.5t-29 -29t-11 -42.5q0 -30 14 -48t33 -25.5t34 -7.5zM320 525l-157 50q-37 13 -43.5 33t5.5 60q13 44 30 54t54 0l153 -47q37 -12 44.5 -32.5t-5.5 -61.5q-13 -43 -29.5 -53t-51.5 -3z" />
    <glyph glyph-name="oacute" unicode="&#xf3;" horiz-adv-x="558" 
d="M280 -18q-46 0 -93 18.5t-86.5 53t-63 83t-23.5 108.5q0 55 21 103t57.5 84.5t84 57.5t101.5 21q74 0 134 -35.5t96 -95.5t36 -134q0 -63 -24 -112t-63 -83t-85.5 -51.5t-91.5 -17.5zM278 165q15 0 34.5 7.5t34 25.5t14.5 49q0 25 -10.5 43t-29.5 28t-44 10
q-22 0 -40 -10.5t-29 -29t-11 -42.5q0 -30 14 -48t33 -25.5t34 -7.5zM232 520q-18 0 -31 15t-23 46q-13 42 -5 62.5t44 31.5l184 54q18 0 31 -15t22 -46q14 -40 5 -61t-43 -32z" />
    <glyph glyph-name="ocircumflex" unicode="&#xf4;" horiz-adv-x="558" 
d="M280 -18q-46 0 -93 18.5t-86.5 53t-63 83t-23.5 108.5q0 55 21 103t57.5 84.5t84 57.5t101.5 21q74 0 134 -35.5t96 -95.5t36 -134q0 -63 -24 -112t-63 -83t-85.5 -51.5t-91.5 -17.5zM278 165q15 0 34.5 7.5t34 25.5t14.5 49q0 25 -10.5 43t-29.5 28t-44 10
q-22 0 -40 -10.5t-29 -29t-11 -42.5q0 -30 14 -48t33 -25.5t34 -7.5zM278 728q8 0 14.5 -2t9.5 -3l129 -43q32 -10 39 -36t-9 -58q-13 -27 -30 -44t-34 -10l-119 45l-118 -43q-19 -7 -35.5 10.5t-30.5 42.5q-17 32 -10.5 57t39.5 36l130 43q2 1 9.5 3t15.5 2z" />
    <glyph glyph-name="otilde" unicode="&#xf5;" horiz-adv-x="558" 
d="M280 -18q-46 0 -93 18.5t-86.5 53t-63 83t-23.5 108.5q0 55 21 103t57.5 84.5t84 57.5t101.5 21q74 0 134 -35.5t96 -95.5t36 -134q0 -63 -24 -112t-63 -83t-85.5 -51.5t-91.5 -17.5zM278 165q15 0 34.5 7.5t34 25.5t14.5 49q0 25 -10.5 43t-29.5 28t-44 10
q-22 0 -40 -10.5t-29 -29t-11 -42.5q0 -30 14 -48t33 -25.5t34 -7.5zM227 728q26 0 39.5 -12t23 -24t20.5 -12q15 0 24 12t19.5 24t29.5 12q10 0 20 -4t21 -12q33 -22 40 -42.5t-11 -49.5q-12 -20 -33.5 -39t-46.5 -30.5t-48 -11.5q-25 0 -39.5 12.5t-24.5 25t-22 12.5
q-27 0 -40 -10.5t-21 -20.5q-10 -13 -19.5 -17t-37.5 18q-31 24 -35.5 43t14.5 47q14 20 36 38t46.5 29.5t44.5 11.5z" />
    <glyph glyph-name="odieresis" unicode="&#xf6;" horiz-adv-x="558" 
d="M280 -18q-46 0 -93 18.5t-86.5 53t-63 83t-23.5 108.5q0 55 21 103t57.5 84.5t84 57.5t101.5 21q74 0 134 -35.5t96 -95.5t36 -134q0 -63 -24 -112t-63 -83t-85.5 -51.5t-91.5 -17.5zM278 165q15 0 34.5 7.5t34 25.5t14.5 49q0 25 -10.5 43t-29.5 28t-44 10
q-22 0 -40 -10.5t-29 -29t-11 -42.5q0 -30 14 -48t33 -25.5t34 -7.5zM407 544q-46 0 -65 13.5t-23 35t-4 44.5t4 44t23.5 34t65.5 13t65 -13.5t23 -35t4 -44.5q0 -22 -4 -43t-23 -34.5t-66 -13.5zM156 544q-46 0 -65 13.5t-23 35t-4 44.5q1 23 4.5 44t23 34t65.5 13
t65 -13.5t23 -35t4 -44.5q0 -22 -4 -43t-23 -34.5t-66 -13.5z" />
    <glyph glyph-name="divide" unicode="&#xf7;" horiz-adv-x="468" 
d="M88 189q-15 0 -32.5 3.5t-29.5 19.5t-12 54t13 53.5t31 18.5t34 3h285q16 0 34 -3t30.5 -19t12.5 -54q0 -37 -11.5 -53t-29.5 -19.5t-37 -3.5h-288zM233 -7q-47 0 -66 18.5t-19 64.5q0 49 19 68t67 19q47 0 65.5 -19t18.5 -67q0 -47 -19 -65.5t-66 -18.5zM233 367
q-47 0 -66 18.5t-19 64.5q0 49 19 68t67 19q47 0 65.5 -19t18.5 -67q0 -47 -19 -65.5t-66 -18.5z" />
    <glyph glyph-name="oslash" unicode="&#xf8;" horiz-adv-x="558" 
d="M458 420l-156 74l49 101q20 41 43.5 47.5t68.5 -13.5q32 -16 44.5 -30.5t11 -33.5t-13.5 -48zM95 -138q-40 19 -52.5 42.5t8.5 64.5l50 102l154 -74l-48 -100q-20 -42 -42.5 -48.5t-69.5 13.5zM280 -18q-46 0 -93 18.5t-86.5 53t-63 83t-23.5 108.5q0 55 21 103
t57.5 84.5t84 57.5t101.5 21q74 0 134 -35.5t96 -95.5t36 -134q0 -63 -24 -112t-63 -83t-85.5 -51.5t-91.5 -17.5zM278 165q15 0 34.5 7.5t34 25.5t14.5 49q0 25 -10.5 43t-29.5 28t-44 10q-22 0 -40 -10.5t-29 -29t-11 -42.5q0 -30 14 -48t33 -25.5t34 -7.5z" />
    <glyph glyph-name="ugrave" unicode="&#xf9;" horiz-adv-x="568" 
d="M257 -7q-48 0 -89.5 19t-72.5 53.5t-48 80.5t-17 100v163q0 23 4 43.5t23 34t64 13.5q46 0 64.5 -13.5t22.5 -34.5t4 -44v-162q0 -23 8.5 -39t25 -24.5t38.5 -8.5t38 9t25 25t9 38v164q0 23 4 43.5t23 33.5t64 13q46 0 64.5 -13.5t22.5 -34.5t4 -43v-329q0 -22 -4 -42
t-23 -33t-64 -13q-33 0 -51.5 7.5t-26.5 19t-9.5 23t-1.5 19.5l17 -5l-8 -9.5t-23.5 -22t-37 -22t-49.5 -9.5zM325 525l-157 50q-37 13 -43.5 33t5.5 60q13 44 30 54t54 0l153 -47q37 -12 44.5 -32.5t-5.5 -61.5q-13 -43 -29.5 -53t-51.5 -3z" />
    <glyph glyph-name="uacute" unicode="&#xfa;" horiz-adv-x="568" 
d="M257 -7q-48 0 -89.5 19t-72.5 53.5t-48 80.5t-17 100v163q0 23 4 43.5t23 34t64 13.5q46 0 64.5 -13.5t22.5 -34.5t4 -44v-162q0 -23 8.5 -39t25 -24.5t38.5 -8.5t38 9t25 25t9 38v164q0 23 4 43.5t23 33.5t64 13q46 0 64.5 -13.5t22.5 -34.5t4 -43v-329q0 -22 -4 -42
t-23 -33t-64 -13q-33 0 -51.5 7.5t-26.5 19t-9.5 23t-1.5 19.5l17 -5l-8 -9.5t-23.5 -22t-37 -22t-49.5 -9.5zM237 520q-18 0 -31 15t-23 46q-13 42 -5 62.5t44 31.5l184 54q18 0 31 -15t22 -46q14 -40 5 -61t-43 -32z" />
    <glyph glyph-name="ucircumflex" unicode="&#xfb;" horiz-adv-x="568" 
d="M257 -7q-48 0 -89.5 19t-72.5 53.5t-48 80.5t-17 100v163q0 23 4 43.5t23 34t64 13.5q46 0 64.5 -13.5t22.5 -34.5t4 -44v-162q0 -23 8.5 -39t25 -24.5t38.5 -8.5t38 9t25 25t9 38v164q0 23 4 43.5t23 33.5t64 13q46 0 64.5 -13.5t22.5 -34.5t4 -43v-329q0 -22 -4 -42
t-23 -33t-64 -13q-33 0 -51.5 7.5t-26.5 19t-9.5 23t-1.5 19.5l17 -5l-8 -9.5t-23.5 -22t-37 -22t-49.5 -9.5zM283 728q8 0 14.5 -2t9.5 -3l129 -43q32 -10 39 -36t-9 -58q-13 -27 -30 -44t-34 -10l-119 45l-118 -43q-19 -7 -35.5 10.5t-30.5 42.5q-17 32 -10.5 57t39.5 36
l130 43q2 1 9.5 3t15.5 2z" />
    <glyph glyph-name="udieresis" unicode="&#xfc;" horiz-adv-x="568" 
d="M257 -7q-48 0 -89.5 19t-72.5 53.5t-48 80.5t-17 100v163q0 23 4 43.5t23 34t64 13.5q46 0 64.5 -13.5t22.5 -34.5t4 -44v-162q0 -23 8.5 -39t25 -24.5t38.5 -8.5t38 9t25 25t9 38v164q0 23 4 43.5t23 33.5t64 13q46 0 64.5 -13.5t22.5 -34.5t4 -43v-329q0 -22 -4 -42
t-23 -33t-64 -13q-33 0 -51.5 7.5t-26.5 19t-9.5 23t-1.5 19.5l17 -5l-8 -9.5t-23.5 -22t-37 -22t-49.5 -9.5zM412 544q-46 0 -65 13.5t-23 35t-4 44.5t4 44t23.5 34t65.5 13t65 -13.5t23 -35t4 -44.5q0 -22 -4 -43t-23 -34.5t-66 -13.5zM161 544q-46 0 -65 13.5t-23 35
t-4 44.5q1 23 4.5 44t23 34t65.5 13t65 -13.5t23 -35t4 -44.5q0 -22 -4 -43t-23 -34.5t-66 -13.5z" />
    <glyph glyph-name="yacute" unicode="&#xfd;" horiz-adv-x="576" 
d="M189 -214q-49 22 -57 48.5t13 69.5l243 544q21 47 45 56t74 -11q48 -22 56.5 -47t-10.5 -67l-245 -549q-20 -47 -44.5 -56.5t-74.5 12.5zM270 6l-238 360q-26 40 -21 66.5t48 53.5q47 29 72.5 22.5t52.5 -47.5l162 -245zM244 520q-18 0 -31 15t-23 46q-13 42 -5 62.5
t44 31.5l184 54q18 0 31 -15t22 -46q14 -40 5 -61t-43 -32z" />
    <glyph glyph-name="thorn" unicode="&#xfe;" horiz-adv-x="539" 
d="M297 3q-49 0 -85 20t-59 54.5t-34 78.5t-10 93q1 48 12.5 93t34.5 80t58 55.5t83 20.5q44 0 85.5 -21t74.5 -56.5t52 -80.5t19 -93q0 -50 -19 -94.5t-51.5 -78t-74 -52.5t-86.5 -19zM112 -219q-42 0 -59.5 13.5t-21 34t-3.5 42.5v781q0 22 3.5 42.5t21.5 33.5t60 13
t59.5 -13.5t21.5 -34t4 -42.5v-782q0 -22 -4 -42t-21.5 -33t-60.5 -13zM273 173q20 0 36.5 10t26.5 26.5t10 35.5q0 20 -9.5 36.5t-26 26t-36.5 9.5q-21 0 -37 -10t-25.5 -26t-9.5 -36q0 -19 10 -35.5t26 -26.5t35 -10z" />
    <glyph glyph-name="ydieresis" unicode="&#xff;" horiz-adv-x="576" 
d="M189 -214q-49 22 -57 48.5t13 69.5l243 544q21 47 45 56t74 -11q48 -22 56.5 -47t-10.5 -67l-245 -549q-20 -47 -44.5 -56.5t-74.5 12.5zM270 6l-238 360q-26 40 -21 66.5t48 53.5q47 29 72.5 22.5t52.5 -47.5l162 -245zM419 544q-46 0 -65 13.5t-23 35t-4 44.5t4 44
t23.5 34t65.5 13t65 -13.5t23 -35t4 -44.5q0 -22 -4 -43t-23 -34.5t-66 -13.5zM168 544q-46 0 -65 13.5t-23 35t-4 44.5q1 23 4.5 44t23 34t65.5 13t65 -13.5t23 -35t4 -44.5q0 -22 -4 -43t-23 -34.5t-66 -13.5z" />
    <glyph glyph-name="dotlessi" unicode="&#x131;" horiz-adv-x="237" 
d="M118 -9q-45 0 -64 13.5t-22.5 34.5t-3.5 43v326q0 22 4 42.5t23 34t64 13.5t63.5 -13.5t22.5 -34.5t4 -44v-325q0 -22 -4 -43t-22.5 -34t-64.5 -13z" />
    <glyph glyph-name="Lslash" unicode="&#x141;" horiz-adv-x="659" 
d="M103 253q-35 -11 -54 -0.5t-30 49.5q-9 38 1.5 56.5t45.5 27.5l286 80q37 8 55 -2.5t28 -45.5q7 -37 -3 -55.5t-43 -28.5zM221 -9q-45 0 -64 13.5t-23 35t-4 43.5v517q0 22 4 43t23 34.5t65 13.5t64.5 -13.5t22.5 -34.5t4 -44v-452h244q19 0 36.5 -3t29 -19.5t11.5 -55.5
q0 -38 -12 -54.5t-29.5 -20t-36.5 -3.5h-335z" />
    <glyph glyph-name="lslash" unicode="&#x142;" horiz-adv-x="435" 
d="M81 253q-29 -8 -44.5 3t-26.5 46q-11 37 -0.5 55.5t47.5 28.5l296 80q31 8 47 -2.5t26 -45.5q8 -37 -2.5 -56t-44.5 -28zM332 -9q-46 0 -80.5 4t-58.5 16t-39 34.5t-22 59t-7 91.5v443q0 23 4 43.5t23 34t64 13.5t63.5 -13.5t22.5 -34.5t4 -44v-431q0 -15 0.5 -23.5
t3 -12.5t8 -4.5t15.5 -0.5q13 0 27.5 -3.5t25 -21t10.5 -60.5q0 -45 -10.5 -64t-25.5 -22.5t-28 -3.5z" />
    <glyph glyph-name="OE" unicode="&#x152;" horiz-adv-x="1016" 
d="M346 -9q-70 4 -130 32t-105.5 75.5t-71 108.5t-25.5 130q0 73 26 137t72 113t106 76.5t129 27.5h563q23 0 44 -4t34.5 -23t13.5 -65q0 -45 -14 -64t-35 -23t-43 -4h-277v-76h175q23 0 43.5 -4t34 -23t13.5 -65q0 -45 -13.5 -64t-35 -23t-44.5 -4h-173v-79h277q23 2 44 -1
t34.5 -22t13.5 -65q0 -45 -14 -64t-35 -23t-43 -4h-564zM347 170h103v338h-102q-43 -2 -77 -25t-54 -60.5t-20 -83.5q0 -44 20 -81.5t54 -60.5t76 -27z" />
    <glyph glyph-name="oe" unicode="&#x153;" horiz-adv-x="878" 
d="M280 -18q-46 0 -93 18.5t-86.5 53t-63 83t-23.5 108.5q0 55 21 103t57.5 84.5t84 57.5t101.5 21q74 0 134 -35.5t96 -95.5t36 -134q0 -63 -24 -112t-63 -83t-85.5 -51.5t-91.5 -17.5zM278 165q15 0 34.5 7.5t34 25.5t14.5 49q0 25 -10.5 43t-29.5 28t-44 10
q-22 0 -40 -10.5t-29 -29t-11 -42.5q0 -30 14 -48t33 -25.5t34 -7.5zM634 -21q-75 0 -127 24.5t-84 64.5t-47 86t-15 89q0 79 35 139t97 94t142 34q62 0 106 -20t71.5 -51t40.5 -66t13 -65q0 -57 -28 -91.5t-72 -34.5h-210q4 -11 17 -21t31 -15.5t38 -5.5q22 0 39 2.5
t29.5 6t23 7.5t19 6.5t16.5 2.5q18 0 33 -12t27 -36q7 -13 10 -24.5t3 -21.5q0 -31 -24.5 -51.5t-70.5 -30.5t-113 -10zM554 286h106q14 0 20 5t6 15q0 12 -6 20.5t-18 13t-29 4.5q-16 0 -33 -8.5t-29.5 -22t-16.5 -27.5z" />
    <glyph glyph-name="Scaron" unicode="&#x160;" horiz-adv-x="542" 
d="M271 -19q-61 0 -103.5 15t-69.5 35.5t-41 37.5t-17 21q-20 25 -24.5 45t6 40t35.5 44q23 22 45 24.5t43.5 -9.5t41.5 -35q24 -27 41 -36.5t39 -9.5q27 0 44 6.5t25 20t8 34.5q0 17 -17 26.5t-44.5 16.5t-61.5 15.5t-67 22.5q-20 8 -39 20t-35.5 27.5t-28.5 37t-18.5 48.5
t-6.5 61q0 61 30.5 109t84 76t121.5 28q49 0 84 -8t57.5 -19t34.5 -20.5t15 -12.5q33 -30 36 -51.5t-24 -61.5q-30 -43 -59 -48.5t-67 18.5q-8 6 -16 13.5t-21.5 13t-40.5 5.5q-10 0 -20 -3.5t-17 -9t-11.5 -13.5t-4.5 -17q0 -21 16 -32.5t42.5 -17.5t58.5 -12t65 -16
q27 -9 52 -23t44 -36t30.5 -54.5t11.5 -79.5q0 -65 -25 -110.5t-64.5 -73t-84 -40t-83.5 -12.5zM271 884l77 34q13 5 31 9t38 -5.5t38 -46.5q17 -35 9 -59.5t-40 -34.5l-129 -43q-3 0 -9.5 -2.5t-14.5 -2.5t-15 2.5t-9 2.5l-129 43q-31 9 -39 35t8 59q18 36 35.5 46
t33.5 7.5t28 -6.5z" />
    <glyph glyph-name="scaron" unicode="&#x161;" horiz-adv-x="457" 
d="M219 -18q-28 0 -62.5 6.5t-67 19t-53.5 29.5t-21 39q0 10 4.5 22.5t12.5 27.5t20 32q7 10 16.5 15t22.5 5q18 0 35 -7.5t34 -17t35.5 -17t39.5 -7.5q19 0 28.5 4t9.5 12t-6.5 13t-18 8.5t-26.5 6.5t-32 7t-35 10q-23 7 -45 18.5t-39.5 30.5t-28 46t-10.5 66q0 52 24 87
t71 53t116 18q17 0 34 -2t34.5 -6t35 -10.5t35.5 -14.5q37 -16 38 -44.5t-21 -59.5q-12 -19 -24.5 -28.5t-25.5 -9.5q-16 0 -35 9t-40 18t-42 9q-12 0 -20.5 -2.5t-12.5 -7t-4 -10.5q0 -11 7.5 -17.5t20 -10.5t29 -7t35.5 -6q26 -4 53.5 -12.5t50.5 -24.5t37 -44t14 -73
q0 -85 -56.5 -129t-166.5 -44zM227 684l77 34q13 5 31 9t38 -5.5t38 -46.5q17 -35 9 -59.5t-40 -34.5l-129 -43q-3 0 -9.5 -2.5t-14.5 -2.5t-15 2.5t-9 2.5l-129 43q-31 9 -39 35t8 59q18 36 35.5 46t33.5 7.5t28 -6.5z" />
    <glyph glyph-name="Ydieresis" unicode="&#x178;" horiz-adv-x="638" 
d="M584 676q44 -30 48 -57.5t-22 -65.5l-199 -298v-175q0 -22 -4 -43t-23 -34.5t-65 -13.5t-65 13.5t-23 35t-4 44.5v173l-199 298q-28 39 -22 67t49 56q31 21 53 24.5t40 -9t35 -40.5l133 -214l139 214q19 29 36.5 41t39.5 8t53 -24zM447 744q-46 0 -65 13.5t-23 35
t-4 44.5t4 44t23.5 34t65.5 13t65 -13.5t23 -35t4 -44.5q0 -22 -4 -43t-23 -34.5t-66 -13.5zM196 744q-46 0 -65 13.5t-23 35t-4 44.5q1 23 4.5 44t23 34t65.5 13t65 -13.5t23 -35t4 -44.5q0 -22 -4 -43t-23 -34.5t-66 -13.5z" />
    <glyph glyph-name="Zcaron" unicode="&#x17d;" horiz-adv-x="598" 
d="M105 -11q-38 0 -64.5 26.5t-26.5 66.5q0 14 3 25.5t10 19.5l278 385h-196q-22 0 -44 3.5t-36.5 22t-14.5 62.5q0 46 13.5 65t35 23t43.5 4h374q38 0 64.5 -27t26.5 -67q0 -14 -3 -25.5t-10 -19.5l-278 -385h214q22 0 42.5 -4t34 -22.5t13.5 -61.5q0 -45 -13.5 -64
t-34.5 -23t-44 -4h-387zM299 884l77 34q13 5 31 9t38 -5.5t38 -46.5q17 -35 9 -59.5t-40 -34.5l-129 -43q-3 0 -9.5 -2.5t-14.5 -2.5t-15 2.5t-9 2.5l-129 43q-31 9 -39 35t8 59q18 36 35.5 46t33.5 7.5t28 -6.5z" />
    <glyph glyph-name="zcaron" unicode="&#x17e;" horiz-adv-x="545" 
d="M104 -9q-37 0 -63.5 27t-26.5 64q0 18 6.5 34.5t20.5 29.5l192 172h-107q-22 0 -43 4t-35 23t-14 64t14 63.5t35 22.5t43 4h303q37 0 63.5 -26t26.5 -63q0 -19 -7 -36.5t-19 -28.5l-187 -172h135q23 0 43.5 -4t33.5 -23.5t13 -64.5t-13.5 -64t-34 -22.5t-43.5 -3.5h-336z
M271 684l77 34q13 5 31 9t38 -5.5t38 -46.5q17 -35 9 -59.5t-40 -34.5l-129 -43q-3 0 -9.5 -2.5t-14.5 -2.5t-15 2.5t-9 2.5l-129 43q-31 9 -39 35t8 59q18 36 35.5 46t33.5 7.5t28 -6.5z" />
    <glyph glyph-name="florin" unicode="&#x192;" horiz-adv-x="492" 
d="M75 -218q-23 0 -42.5 3t-30.5 16t-11 43q0 6 0.5 13t1.5 14q2 44 24.5 65t74.5 21q9 0 15.5 2.5t10.5 7t4 10.5l35 313h-11q-19 0 -38 3.5t-31.5 18.5t-12.5 48v10.5t1 10.5q5 45 20 63.5t36 22t43 3.5l10 -1l6 36q3 32 18.5 65.5t43 63t68.5 47.5t95 18q20 0 39 -3
t31 -17t12 -48v-10.5t-1 -12.5q-4 -43 -18.5 -61.5t-35 -22.5t-42.5 -4q-8 0 -14 -1t-9.5 -3t-5.5 -4.5t-2 -6.5l-4 -39l50 4q20 0 39 -3t31 -17t12 -49v-10.5t-1 -11.5q-4 -42 -19 -61t-36 -23.5t-43 -4.5l-51 3l-36 -317q-11 -52 -29 -88.5t-45 -60t-64.5 -34.5t-87.5 -11
z" />
    <glyph glyph-name="circumflex" unicode="&#x2c6;" horiz-adv-x="561" 
d="M284 728q8 0 14.5 -2t9.5 -3l129 -43q32 -10 39 -36t-9 -58q-13 -27 -30 -44t-34 -10l-119 45l-118 -43q-19 -7 -35.5 10.5t-30.5 42.5q-17 32 -10.5 57t39.5 36l130 43q2 1 9.5 3t15.5 2z" />
    <glyph glyph-name="caron" unicode="&#x2c7;" horiz-adv-x="558" 
d="M281 684l77 34q13 5 31 9t38 -5.5t38 -46.5q17 -35 9 -59.5t-40 -34.5l-129 -43q-3 0 -9.5 -2.5t-14.5 -2.5t-15 2.5t-9 2.5l-129 43q-31 9 -39 35t8 59q18 36 35.5 46t33.5 7.5t28 -6.5z" />
    <glyph glyph-name="breve" unicode="&#x2d8;" horiz-adv-x="349" 
d="M176 565q-60 0 -104 36t-56 90q-4 20 3.5 28.5t30.5 8.5h42q24 0 28 -21q3 -21 17.5 -35t38.5 -14q23 0 37.5 14t17.5 35q4 21 28 21h43q22 0 30 -9t4 -29q-10 -53 -55 -89t-105 -36z" />
    <glyph glyph-name="dotaccent" unicode="&#x2d9;" horiz-adv-x="271" 
d="M135 644q-45 0 -63.5 14t-22.5 35t-4 43t4 42.5t23 34t64 13.5t63.5 -14t22.5 -34.5t4 -42.5t-4 -43t-22.5 -34.5t-64.5 -13.5z" />
    <glyph glyph-name="ring" unicode="&#x2da;" horiz-adv-x="352" 
d="M176 525q-35 0 -64.5 17.5t-47 47t-17.5 64.5q0 36 17.5 65.5t46.5 47t64 17.5q36 0 65.5 -17t47 -46.5t17.5 -65.5t-17.5 -65.5t-46.5 -47t-65 -17.5zM176 607q20 0 33.5 14t13.5 35q0 20 -13.5 33t-34.5 13q-19 0 -33 -13.5t-14 -33.5q0 -21 14 -34.5t34 -13.5z" />
    <glyph glyph-name="ogonek" unicode="&#x2db;" horiz-adv-x="307" 
d="M168 -193q-46 0 -79.5 32t-33.5 80q0 38 18.5 62.5t45 36.5t48.5 12q19 0 37.5 -6.5t31.5 -16.5t15 -21q2 -7 -0.5 -15.5t-8.5 -17.5q-5 -8 -13.5 -17t-21.5 -9q-11 0 -20 7.5t-20 7.5q-6 0 -15 -5t-9 -19q0 -13 9 -18t15 -5q14 0 18.5 7t19.5 7q9 0 17.5 -5.5
t18.5 -18.5q6 -7 9 -15t1 -16q-2 -19 -28.5 -33t-54.5 -14z" />
    <glyph glyph-name="tilde" unicode="&#x2dc;" horiz-adv-x="543" 
d="M211 728q26 0 39.5 -12t23 -24t20.5 -12q15 0 24 12t19.5 24t29.5 12q10 0 20 -4t21 -12q33 -22 40 -42.5t-11 -49.5q-12 -20 -33.5 -39t-46.5 -30.5t-48 -11.5q-25 0 -39.5 12.5t-24.5 25t-22 12.5q-27 0 -40 -10.5t-21 -20.5q-10 -13 -19.5 -17t-37.5 18
q-31 24 -35.5 43t14.5 47q14 20 36 38t46.5 29.5t44.5 11.5z" />
    <glyph glyph-name="hungarumlaut" unicode="&#x2dd;" horiz-adv-x="448" 
d="M351 557q-13 -12 -32.5 -10t-48.5 19q-37 23 -44.5 43.5t11.5 53.5l102 162q13 12 33 9.5t47 -19.5q37 -21 44 -42.5t-11 -52.5zM131 557q-13 -12 -32.5 -10t-48.5 19q-37 23 -44.5 43.5t11.5 53.5l102 162q13 12 33 9.5t47 -19.5q37 -21 44 -42.5t-11 -52.5z" />
    <glyph glyph-name="gravecomb" unicode="&#x300;" 
d="M254 525l-157 50q-37 13 -43.5 33t5.5 60q13 44 30 54t54 0l153 -47q37 -12 44.5 -32.5t-5.5 -61.5q-13 -43 -29.5 -53t-51.5 -3z" />
    <glyph glyph-name="acutecomb" unicode="&#x301;" 
d="M193 520q-18 0 -31 15t-23 46q-13 42 -5 62.5t44 31.5l184 54q18 0 31 -15t22 -46q14 -40 5 -61t-43 -32z" />
    <glyph glyph-name="uni0302" unicode="&#x302;" 
d="M284 728q8 0 14.5 -2t9.5 -3l129 -43q32 -10 39 -36t-9 -58q-13 -27 -30 -44t-34 -10l-119 45l-118 -43q-19 -7 -35.5 10.5t-30.5 42.5q-17 32 -10.5 57t39.5 36l130 43q2 1 9.5 3t15.5 2z" />
    <glyph glyph-name="tildecomb" unicode="&#x303;" 
d="M211 728q26 0 39.5 -12t23 -24t20.5 -12q15 0 24 12t19.5 24t29.5 12q10 0 20 -4t21 -12q33 -22 40 -42.5t-11 -49.5q-12 -20 -33.5 -39t-46.5 -30.5t-48 -11.5q-25 0 -39.5 12.5t-24.5 25t-22 12.5q-27 0 -40 -10.5t-21 -20.5q-10 -13 -19.5 -17t-37.5 18
q-31 24 -35.5 43t14.5 47q14 20 36 38t46.5 29.5t44.5 11.5z" />
    <glyph glyph-name="uni0304" unicode="&#x304;" 
d="M182 561q-10 0 -22 2.5t-20.5 14.5t-8.5 40q0 27 8.5 38.5t20.5 13.5t22 2h229q11 0 22.5 -2.5t20 -13.5t8.5 -39t-8 -39.5t-19.5 -14t-23.5 -2.5h-229z" />
    <glyph glyph-name="uni0306" unicode="&#x306;" 
d="M176 565q-60 0 -104 36t-56 90q-4 20 3.5 28.5t30.5 8.5h42q24 0 28 -21q3 -21 17.5 -35t38.5 -14q23 0 37.5 14t17.5 35q4 21 28 21h43q22 0 30 -9t4 -29q-10 -53 -55 -89t-105 -36z" />
    <glyph glyph-name="uni0307" unicode="&#x307;" 
d="M135 644q-45 0 -63.5 14t-22.5 35t-4 43t4 42.5t23 34t64 13.5t63.5 -14t22.5 -34.5t4 -42.5t-4 -43t-22.5 -34.5t-64.5 -13.5z" />
    <glyph glyph-name="uni0308" unicode="&#x308;" 
d="M388 544q-46 0 -65 13.5t-23 35t-4 44.5t4 44t23.5 34t65.5 13t65 -13.5t23 -35t4 -44.5q0 -22 -4 -43t-23 -34.5t-66 -13.5zM137 544q-46 0 -65 13.5t-23 35t-4 44.5q1 23 4.5 44t23 34t65.5 13t65 -13.5t23 -35t4 -44.5q0 -22 -4 -43t-23 -34.5t-66 -13.5z" />
    <glyph glyph-name="uni030A" unicode="&#x30a;" 
d="M176 525q-35 0 -64.5 17.5t-47 47t-17.5 64.5q0 36 17.5 65.5t46.5 47t64 17.5q36 0 65.5 -17t47 -46.5t17.5 -65.5t-17.5 -65.5t-46.5 -47t-65 -17.5zM176 607q20 0 33.5 14t13.5 35q0 20 -13.5 33t-34.5 13q-19 0 -33 -13.5t-14 -33.5q0 -21 14 -34.5t34 -13.5z" />
    <glyph glyph-name="uni030B" unicode="&#x30b;" 
d="M351 557q-13 -12 -32.5 -10t-48.5 19q-37 23 -44.5 43.5t11.5 53.5l102 162q13 12 33 9.5t47 -19.5q37 -21 44 -42.5t-11 -52.5zM131 557q-13 -12 -32.5 -10t-48.5 19q-37 23 -44.5 43.5t11.5 53.5l102 162q13 12 33 9.5t47 -19.5q37 -21 44 -42.5t-11 -52.5z" />
    <glyph glyph-name="uni030C" unicode="&#x30c;" 
d="M281 684l77 34q13 5 31 9t38 -5.5t38 -46.5q17 -35 9 -59.5t-40 -34.5l-129 -43q-3 0 -9.5 -2.5t-14.5 -2.5t-15 2.5t-9 2.5l-129 43q-31 9 -39 35t8 59q18 36 35.5 46t33.5 7.5t28 -6.5z" />
    <glyph glyph-name="uni0327" unicode="&#x327;" 
d="M149 -192q-29 0 -54 14.5t-29 36.5q0 15 11 27q11 13 19 18.5t16 5.5q13 0 19 -7t20 -7q5 0 14 5t9 18q0 14 -9 19t-15 5q-10 0 -18.5 -7.5t-21.5 -7.5q-12 0 -20.5 9t-13.5 16q-4 8 -7 14.5t-3 12.5q0 15 13.5 26.5t33 17.5t37.5 6q23 0 49 -12t44.5 -36t18.5 -62
q0 -33 -16 -58t-42 -39.5t-55 -14.5z" />
    <glyph glyph-name="uni0328" unicode="&#x328;" 
d="M168 -193q-46 0 -79.5 32t-33.5 80q0 38 18.5 62.5t45 36.5t48.5 12q19 0 37.5 -6.5t31.5 -16.5t15 -21q2 -7 -0.5 -15.5t-8.5 -17.5q-5 -8 -13.5 -17t-21.5 -9q-11 0 -20 7.5t-20 7.5q-6 0 -15 -5t-9 -19q0 -13 9 -18t15 -5q14 0 18.5 7t19.5 7q9 0 17.5 -5.5
t18.5 -18.5q6 -7 9 -15t1 -16q-2 -19 -28.5 -33t-54.5 -14z" />
    <glyph glyph-name="uni05B0" unicode="&#x5b0;" 
d="M73 -229q-20 0 -35 15t-15 37q0 21 15.5 37.5t34.5 16.5q21 0 36 -16t15 -38t-15 -37t-36 -15zM73 -112q-20 0 -35 15t-15 37t15 37t35 15q21 0 36 -15t15 -37t-15 -37t-36 -15z" />
    <glyph glyph-name="uni05B1" unicode="&#x5b1;" 
d="M345 -229q-21 0 -35.5 15t-14.5 37q0 21 15 37.5t35 16.5q21 0 35.5 -16t14.5 -38t-14.5 -37t-35.5 -15zM152 -229q-22 0 -37 15t-15 37q0 21 16 37.5t36 16.5t34 -16t14 -38t-14 -37t-34 -15zM94 -112q-21 0 -36.5 15t-15.5 37q0 21 15.5 36.5t36.5 15.5q20 0 34 -15
t14 -37t-14 -37t-34 -15zM211 -112q-21 0 -35.5 15t-14.5 37t14.5 37t35.5 15t35.5 -15t14.5 -37t-14.5 -37t-35.5 -15zM345 -112q-21 0 -35.5 15t-14.5 37t14.5 37t35.5 15t35.5 -15t14.5 -37t-14.5 -37t-35.5 -15z" />
    <glyph glyph-name="uni05B2" unicode="&#x5b2;" 
d="M112 -88q-33 0 -33 32v4q0 15 9 24t24 9h107q15 0 24 -9t9 -24v-4q0 -32 -33 -32h-107zM330 -229q-21 0 -35.5 15t-14.5 37q0 21 15 37.5t35 16.5q21 0 35.5 -16t14.5 -38t-14.5 -37t-35.5 -15zM330 -112q-21 0 -35.5 15t-14.5 37t14.5 37t35.5 15t35.5 -15t14.5 -37
t-14.5 -37t-35.5 -15z" />
    <glyph glyph-name="uni05B3" unicode="&#x5b3;" 
d="M154 -190q-16 0 -24.5 9.5t-6.5 25.5l9 67h-39q-33 0 -33 32v4q0 15 9 24t24 9h126q15 0 24 -9t9 -24v-4q0 -32 -33 -32h-38l7 -68q2 -15 -6.5 -24.5t-24.5 -9.5h-3zM330 -229q-21 0 -35.5 15t-14.5 37q0 21 15 37.5t35 16.5q21 0 35.5 -16t14.5 -38t-14.5 -37t-35.5 -15
zM330 -112q-21 0 -35.5 15t-14.5 37t14.5 37t35.5 15t35.5 -15t14.5 -37t-14.5 -37t-35.5 -15z" />
    <glyph glyph-name="uni05B4" unicode="&#x5b4;" 
d="M73 -117q-20 0 -35 15t-15 37t15 37t35 15q21 0 36 -15t15 -37t-15 -37t-36 -15z" />
    <glyph glyph-name="uni05B5" unicode="&#x5b5;" 
d="M215 -117q-21 0 -35.5 15t-14.5 37t14.5 37t35.5 15t35.5 -15t14.5 -37t-14.5 -37t-35.5 -15zM94 -117q-21 0 -36.5 15.5t-15.5 36.5t15.5 36.5t36.5 15.5q20 0 34 -15t14 -37q0 -21 -14 -36.5t-34 -15.5z" />
    <glyph glyph-name="uni05B6" unicode="&#x5b6;" 
d="M152 -229q-22 0 -37 15t-15 37q0 21 16 37.5t36 16.5t34 -16t14 -38t-14 -37t-34 -15zM94 -112q-21 0 -36.5 15t-15.5 37q0 21 15.5 36.5t36.5 15.5q20 0 34 -15t14 -37t-14 -37t-34 -15zM211 -112q-21 0 -35.5 15t-14.5 37t14.5 37t35.5 15t35.5 -15t14.5 -37t-14.5 -37
t-35.5 -15z" />
    <glyph glyph-name="uni05B7" unicode="&#x5b7;" 
d="M93 -88q-33 0 -33 32v4q0 15 9 24t24 9h108q32 0 32 -33v-4q0 -32 -32 -32h-108z" />
    <glyph glyph-name="uni05B8" unicode="&#x5b8;" 
d="M145 -190q-16 0 -24.5 9.5t-6.5 25.5l8 67h-38q-33 0 -33 32v4q0 15 9 24t24 9h126q15 0 24 -9t9 -24v-4q0 -32 -33 -32h-39l7 -68q2 -15 -6 -24.5t-24 -9.5h-3z" />
    <glyph glyph-name="uni05B9" unicode="&#x5b9;" 
d="M73 537q-21 0 -35.5 15.5t-14.5 38.5q0 21 15 36.5t35 15.5q21 0 36 -15.5t15 -36.5q0 -23 -14 -38.5t-37 -15.5z" />
    <glyph glyph-name="uni05BA" unicode="&#x5ba;" 
d="M73 537q-20 0 -35 16t-15 38q0 21 15 36.5t35 15.5t35.5 -15.5t15.5 -36.5q0 -22 -15 -38t-36 -16z" />
    <glyph glyph-name="uni05BB" unicode="&#x5bb;" 
d="M247 -249q-21 0 -35.5 15t-14.5 37t14.5 37t35.5 15t36 -15t15 -37t-15 -37t-36 -15zM76 -100q-21 0 -36.5 15.5t-15.5 36.5t15.5 36.5t36.5 15.5t35 -15t14 -37t-14 -37t-35 -15zM162 -175q-21 0 -35.5 15.5t-14.5 37.5q0 21 14.5 36.5t35.5 15.5t35.5 -15.5t14.5 -37.5
q0 -21 -14.5 -36.5t-35.5 -15.5z" />
    <glyph glyph-name="uni05BC" unicode="&#x5bc;" 
d="M73 253q-17 0 -28.5 12.5t-11.5 31.5q0 17 12 29.5t28 12.5q17 0 29 -12.5t12 -29.5q0 -19 -11.5 -31.5t-29.5 -12.5z" />
    <glyph glyph-name="uni05BE" unicode="&#x5be;" horiz-adv-x="302" 
d="M116 402q-23 0 -44.5 4t-35 23.5t-13.5 64.5q0 46 13.5 65t35 23t43.5 4h72q23 0 44 -4t34.5 -23t13.5 -65q0 -45 -13.5 -64.5t-34.5 -23.5t-45 -4h-70z" />
    <glyph glyph-name="uni05BF" unicode="&#x5bf;" 
d="M33 551v38h169v-38h-169z" />
    <glyph glyph-name="uni05C1" unicode="&#x5c1;" 
d="M73 533q-20 0 -35 16t-15 38q0 21 15 36.5t35 15.5t35.5 -15.5t15.5 -36.5q0 -22 -15 -38t-36 -16z" />
    <glyph glyph-name="uni05C2" unicode="&#x5c2;" 
d="M73 533q-20 0 -35 16t-15 38q0 21 15 36.5t35 15.5t35.5 -15.5t15.5 -36.5q0 -22 -15 -38t-36 -16z" />
    <glyph glyph-name="uni05C7" unicode="&#x5c7;" 
d="M99 -226q-16 0 -24.5 9.5t-7.5 25.5l13 114h-24q-15 0 -24 9t-9 24v1q0 15 9 24t24 9h87q15 0 24 -9t9 -24v-1q0 -15 -9 -24t-24 -9h-25l14 -114q2 -16 -6.5 -25.5t-25.5 -9.5h-1z" />
    <glyph glyph-name="uni05D0" unicode="&#x5d0;" horiz-adv-x="631" 
d="M555 10q-37 -27 -60.5 -27t-39 15t-29.5 31l-348 410q-14 17 -23 36t-1.5 41.5t44.5 48.5q37 28 59.5 28.5t38 -14t30.5 -32.5l348 -409q14 -17 23.5 -36t2 -41.5t-44.5 -50.5zM92 -5q-44 11 -59 29.5t-13.5 40.5t7.5 43l96 318l154 -79l-75 -293q-5 -20 -14 -38t-31 -25
t-65 4zM432 179l-75 101l72 241q7 22 17 39.5t32.5 23.5t65.5 -7t56.5 -31.5t11 -40t-9.5 -44.5l-45 -158q-9 -23 -25.5 -40t-41 -35.5t-58.5 -48.5z" />
    <glyph glyph-name="uni05D1" unicode="&#x5d1;" horiz-adv-x="616" 
d="M420 -9q-44 0 -63.5 12.5t-24 32.5t-4.5 41v168q0 41 -7.5 70.5t-22.5 49t-38.5 28.5t-56.5 9h-77q-23 0 -44.5 4t-35 23.5t-13.5 64.5q0 46 13.5 65t34.5 23t44 4h75q80 0 138.5 -20.5t97 -62.5t57.5 -105.5t19 -150.5v-163q0 -23 -4 -44.5t-23 -35t-65 -13.5zM116 -9
q-23 0 -44.5 4t-35 23.5t-13.5 64.5q0 46 13.5 65t35 23t43.5 4h390q23 0 44 -4t34.5 -23t13.5 -65q0 -45 -13.5 -64.5t-34.5 -23.5t-45 -4h-388z" />
    <glyph glyph-name="uni05D2" unicode="&#x5d2;" horiz-adv-x="449" 
d="M342 -9q-45 0 -63.5 12.5t-22.5 32t-7 40.5l-25 177q-4 29 -6 56.5t-7 50t-17 36t-37 13.5q-22 0 -36.5 1t-26.5 8q-14 9 -20.5 25.5t-5.5 41.5l3 47q2 32 18.5 45.5t65.5 11.5q1 0 12.5 -0.5t12.5 -0.5q67 -2 106.5 -25t60.5 -62.5t31.5 -91t20.5 -111.5l34 -213
q8 -49 -13.5 -71.5t-77.5 -22.5zM115 -5q-30 -4 -54 -1.5t-38.5 19t-16.5 53.5q-3 56 10 77.5t53 22.5q28 1 52.5 7.5t48.5 17t48.5 24t51.5 29t58 30.5l1 -98q-23 -24 -42.5 -48t-37.5 -45.5t-37.5 -39.5t-43 -30.5t-53.5 -17.5z" />
    <glyph glyph-name="uni05D3" unicode="&#x5d3;" horiz-adv-x="591" 
d="M116 402q-23 0 -44.5 4t-35 23.5t-13.5 64.5q0 46 13.5 65t35 23t43.5 4h360q23 0 44 -4t34.5 -23t13.5 -65q0 -45 -13.5 -64.5t-34.5 -23.5t-45 -4h-358zM375 -9q-45 0 -64 13.5t-23 35t-4 44.5v367l183 -17v-357q0 -21 -4 -41t-23.5 -32.5t-64.5 -12.5z" />
    <glyph glyph-name="uni05D4" unicode="&#x5d4;" horiz-adv-x="591" 
d="M476 -9q-45 0 -64 12.5t-23.5 32.5t-4.5 41v168q0 55 -13 89.5t-40.5 51t-71.5 16.5h-143q-23 0 -44.5 4t-35 23.5t-13.5 64.5q0 46 13.5 65t35 23t43.5 4h141q106 0 175 -36.5t102.5 -111.5t33.5 -191v-163q0 -23 -4 -44.5t-22.5 -35t-64.5 -13.5zM124 -9
q-45 0 -64 13.5t-23 35t-4 43.5v149q0 22 4 43t23 34.5t65 13.5t64.5 -14t22.5 -35t4 -43v-149q0 -22 -4 -43t-23 -34.5t-65 -13.5z" />
    <glyph glyph-name="uni05D5" unicode="&#x5d5;" horiz-adv-x="248" 
d="M124 -9q-45 0 -64 13.5t-23 35t-4 43.5v412q0 22 4 43t23 34.5t65 13.5t64.5 -14t22.5 -35t4 -43v-412q0 -22 -4 -43t-23 -34.5t-65 -13.5z" />
    <glyph glyph-name="uni05D6" unicode="&#x5d6;" horiz-adv-x="432" 
d="M229 -9q-35 0 -53 8t-25.5 21.5t-10 29.5t-5.5 32l-16 85q-7 39 -12 87.5t2.5 96t35.5 83.5l169 -15q-18 -7 -25.5 -29.5t-7.5 -53t4 -63t9 -61t8 -45.5l16 -88q8 -46 -12.5 -67t-76.5 -21zM107 402q-23 0 -44.5 4t-35 23.5t-13.5 64.5q0 46 13.5 65t34.5 23t44 4h211
q23 0 44 -4t34.5 -23t13.5 -65q0 -45 -13.5 -64.5t-34.5 -23.5t-45 -4h-209z" />
    <glyph glyph-name="uni05D7" unicode="&#x5d7;" horiz-adv-x="630" 
d="M131 -9q-46 0 -65 13.5t-23 34.5t-4 44v411q0 22 4 42.5t23 34.5t65 14l164 1q80 0 138.5 -20t96.5 -62t57 -106t19 -151v-163q0 -23 -4 -44.5t-22.5 -35t-64.5 -13.5q-45 0 -64 12.5t-23.5 32.5t-4.5 41v168q0 41 -7.5 70.5t-22.5 49t-38.5 28.5t-56.5 9h-75v-318
q0 -24 -4 -45t-23 -34.5t-65 -13.5z" />
    <glyph glyph-name="uni05D8" unicode="&#x5d8;" horiz-adv-x="626" 
d="M312 -20q-76 0 -130.5 30.5t-89.5 80.5t-52 109.5t-17 118.5v175q0 23 4 44t23 34.5t65 13.5t65 -13.5t23 -34.5t4 -45v-174q0 -80 26 -117.5t82 -37.5q59 0 84 37t23 119q-1 38 -19 60t-50 22h-12q-23 0 -42 4t-30 23.5t-11 64.5q0 46 13.5 65t34.5 23t44 4h10
q75 0 130.5 -38t85.5 -106t27 -158q0 -64 -22 -119.5t-62 -97t-92.5 -64.5t-114.5 -23z" />
    <glyph glyph-name="uni05D9" unicode="&#x5d9;" horiz-adv-x="248" 
d="M124 223q-45 0 -64 14t-23 35t-4 43v180q0 22 4 43t23 34.5t65 13.5t64.5 -14t22.5 -35t4 -43v-180q0 -22 -4 -43t-23 -34.5t-65 -13.5z" />
    <glyph glyph-name="uni05DA" unicode="&#x5da;" horiz-adv-x="544" 
d="M430 -149q-45 0 -64 13t-23.5 33t-4.5 41v307q0 41 -7.5 70.5t-23 49t-39 28.5t-56.5 9h-96q-23 0 -44.5 4t-35 23.5t-13.5 64.5q0 46 13.5 65t35 23t43.5 4h94q80 0 138.5 -20.5t97 -62.5t57.5 -105.5t19 -150.5v-303q0 -22 -4 -43.5t-22.5 -35.5t-64.5 -14z" />
    <glyph glyph-name="uni05DB" unicode="&#x5db;" horiz-adv-x="554" 
d="M246 -21q-64 0 -106.5 15.5t-69.5 30.5q-25 14 -40 33.5t-17 41.5q-1 11 5 28t16 36q15 26 31 38t38 12q14 0 27 -8.5t23 -16.5q20 -13 41.5 -20t43.5 -7q37 0 63 14.5t39.5 41.5t13.5 66q0 53 -29.5 85.5t-78.5 32.5h-115q-23 0 -42.5 4t-30.5 23.5t-11 64.5
q0 46 13.5 65t35 23t44.5 4h122q78 0 140 -39.5t98 -108t36 -154.5q0 -76 -26 -133.5t-68.5 -95.5t-94 -57t-101.5 -19z" />
    <glyph glyph-name="uni05DC" unicode="&#x5dc;" horiz-adv-x="524" 
d="M188 -3q-49 27 -58 57.5t19 70.5q32 45 61 90.5t55.5 92t51 94t46.5 95.5l139 -114q-28 -65 -58.5 -125.5t-64 -116.5t-69.5 -109q-12 -17 -26.5 -33t-37 -19t-58.5 17zM496 369l-119 33h-258q-53 0 -74 19.5t-24 71.5l-7 149q-1 23 4 44t25.5 34.5t65.5 13.5
q46 0 63.5 -14t20.5 -35t4 -43l3 -56h184q55 0 88.5 -30.5t41 -80t-17.5 -106.5z" />
    <glyph glyph-name="uni05DD" unicode="&#x5dd;" horiz-adv-x="601" 
d="M120 -9q-46 0 -65 13.5t-23 34.5t-4 44v404q0 52 24.5 75.5t77.5 23.5h159q90 0 155.5 -38.5t101.5 -108t36 -164.5v-191q0 -23 -4 -44.5t-22.5 -35t-64.5 -13.5q-45 0 -64 12.5t-23.5 32.5t-4.5 41v195q0 46 -10.5 74.5t-34 42t-62.5 13.5h-80v-318q0 -24 -4 -45
t-23 -34.5t-65 -13.5zM111 -9l1 184h387l1 -184h-389z" />
    <glyph glyph-name="uni05DE" unicode="&#x5de;" horiz-adv-x="650" 
d="M621 253v-170q0 -43 -5 -62.5t-24 -24.5t-62 -5h-166q-22 0 -43.5 4t-35 23t-13.5 65t13.5 65t35 23t44.5 4h73v75q0 56 -8 90.5t-24.5 50.5t-43.5 16q-36 0 -57 -15t-32 -38.5t-16.5 -51l-10.5 -52.5l-29 -168q-4 -22 -7.5 -43t-21.5 -34.5t-64 -13.5q-57 0 -78 22
t-12 71l46 271l64 -77q18 40 29 83.5t23 84.5t34 73.5t61.5 52t106.5 19.5q72 0 121.5 -39.5t75.5 -114.5t26 -184zM105 174l-75 299q-5 23 -6 44.5t14.5 39t60.5 27.5q44 9 65.5 0t30 -27.5t13.5 -39.5l43 -204z" />
    <glyph glyph-name="uni05DF" unicode="&#x5df;" horiz-adv-x="248" 
d="M124 -149q-45 0 -64 14t-23 35t-4 43v552q0 22 4 43t23 34.5t65 13.5t64.5 -14t22.5 -35t4 -43v-552q0 -22 -4 -43t-23 -34.5t-65 -13.5z" />
    <glyph glyph-name="uni05E0" unicode="&#x5e0;" horiz-adv-x="432" 
d="M313 -9q-44 0 -63.5 12.5t-24 32.5t-4.5 41v195q0 46 -8.5 74.5t-25.5 42t-45 13.5h-12q-23 0 -44.5 4t-35 23.5t-13.5 64.5q0 46 13.5 65t35 23t43.5 4h11q90 0 149 -33.5t87.5 -102.5t28.5 -175v-191q0 -23 -4 -44.5t-23 -35t-65 -13.5zM112 -9q-23 0 -44.5 4t-35 23.5
t-13.5 64.5q0 46 13.5 65t34.5 23t44 4h213l-1 -184h-211z" />
    <glyph glyph-name="uni05E1" unicode="&#x5e1;" horiz-adv-x="635" 
d="M326 -25q-90 0 -158.5 38.5t-106.5 108t-38 161.5v204q0 43 28 71t70 28h198q92 0 159.5 -37t105 -104.5t37.5 -158.5q0 -93 -37 -163t-103.5 -109t-154.5 -39zM322 160q53 0 84 34t31 92q0 37 -13.5 63t-39 39.5t-61.5 13.5h-116v-116q0 -58 31.5 -92t83.5 -34z" />
    <glyph glyph-name="uni05E2" unicode="&#x5e2;" horiz-adv-x="578" 
d="M127 -45q-22 -6 -42 -6.5t-36.5 15.5t-28.5 59q-11 40 -1.5 62t30.5 33t44 17l185 49q42 14 60.5 31.5t23 43t4.5 62.5v178q0 22 4 41.5t23 32.5t64 13t65 -13.5t24.5 -35t4.5 -44.5l-1 -131q0 -76 -13.5 -133t-42 -98.5t-74.5 -71.5t-113 -52zM193 133
q-26 11 -46.5 28.5t-36.5 63.5l-76 243q-7 22 -9 43t12.5 39.5t58.5 30.5t66.5 1t33 -32.5t16.5 -42.5l101 -339z" />
    <glyph glyph-name="uni05E3" unicode="&#x5e3;" horiz-adv-x="558" 
d="M445 -149q-45 0 -64 14t-23 35t-4 43v353q0 36 -8.5 59.5t-26 35.5t-44.5 12h-64q-19 0 -28.5 -9t-8 -21.5t15.5 -24.5q8 -6 16 -13t15.5 -13.5t15.5 -13.5q23 -19 27 -39.5t-10.5 -42.5t-47.5 -47q-28 -21 -59 -15t-59 32.5t-46.5 69t-21.5 93.5q-2 48 14.5 89.5
t48.5 72.5t75.5 48.5t95.5 17.5h18q84 0 143.5 -34t91 -98.5t31.5 -155.5v-357q0 -22 -4 -43t-23 -34.5t-66 -13.5z" />
    <glyph glyph-name="uni05E4" unicode="&#x5e4;" horiz-adv-x="572" 
d="M126 -9q-22 0 -43.5 4t-35 23t-13.5 65t13.5 65t35 23t44.5 4h144q29 0 50 13t32.5 37.5t11.5 58.5v12q0 50 -22.5 78.5t-63.5 28.5h-53q-16 0 -26 -7.5t-10.5 -17.5t11.5 -20q5 -4 10 -7.5t9 -7.5q19 -14 19 -33t-10.5 -38t-23 -33.5t-18.5 -19.5q-23 -19 -49.5 -16
t-51 22.5t-41.5 52.5t-21 74q-4 49 11 91.5t45.5 75t73.5 50.5t94 18h28q85 0 146 -35t94 -99.5t33 -153.5v-18q0 -90 -34 -155t-97 -100t-150 -35h-142z" />
    <glyph glyph-name="uni05E5" unicode="&#x5e5;" horiz-adv-x="558" 
d="M376 -146q-44 -8 -65.5 0t-30 26t-13.5 39q-17 72 -37.5 137.5t-45 126t-53.5 117.5t-64 112q-9 14 -20.5 31t-17 36t2.5 38.5t38 37.5q29 22 52 27.5t43 -4t37 -34.5q40 -58 76.5 -127.5t67.5 -144t54 -149.5t36 -144q3 -16 6 -35t-0.5 -37.5t-18 -32.5t-47.5 -20z
M339 174l-115 126l133 243q13 18 27.5 32t38 14t61.5 -26q38 -25 45 -47t-2.5 -42t-21.5 -39z" />
    <glyph glyph-name="uni05E6" unicode="&#x5e6;" horiz-adv-x="570" 
d="M422 -9l-102 116l-273 347q-27 36 -16.5 64t47.5 53q38 27 61 26.5t38.5 -15t28.5 -33.5l258 -339q11 -13 19 -24t16 -25q15 -25 15 -55.5t-11.5 -57t-32.5 -43t-48 -14.5zM107 -9q-23 0 -44.5 4t-35 23.5t-13.5 64.5q0 46 13.5 65t34.5 23t44 4h319l11 -184h-329z
M386 176l-122 118l115 251q12 19 25.5 34t36.5 16.5t63 -21.5q39 -22 48 -43.5t1.5 -42t-18.5 -40.5z" />
    <glyph glyph-name="uni05E7" unicode="&#x5e7;" horiz-adv-x="604" 
d="M349 -11q-53 17 -68.5 44t1.5 72q16 41 31 80t28.5 78t26 78.5t25 79.5t25.5 82l156 -108q-10 -36 -20.5 -70.5l-21 -69t-21.5 -68t-23 -67.5t-26 -69q-8 -20 -20 -39t-33.5 -27t-59.5 4zM123 -195q-45 0 -64 13.5t-23 35t-4 43.5v343q0 23 4 43.5t23 34t65 13.5
t64.5 -13.5t22.5 -34.5t4 -44v-343q0 -22 -4 -43t-23 -34.5t-65 -13.5zM567 371l-159 32h-36h-256q-23 0 -44.5 4t-35 23.5t-13.5 64.5q0 46 13.5 65t35 23t43.5 4l311 -1q63 0 101.5 -27t49.5 -75.5t-10 -112.5z" />
    <glyph glyph-name="uni05E8" unicode="&#x5e8;" horiz-adv-x="530" 
d="M411 -9q-45 0 -64 12.5t-23.5 32.5t-4.5 41v168q0 41 -7.5 70.5t-23 49t-39 28.5t-56.5 9h-86q-23 0 -44.5 4t-35 23.5t-13.5 64.5q0 46 13.5 65t34.5 23t44 4h85q80 0 138.5 -20.5t96.5 -62.5t57 -105.5t19 -150.5v-163q0 -23 -4 -44.5t-22.5 -35t-64.5 -13.5z" />
    <glyph glyph-name="uni05E9" unicode="&#x5e9;" horiz-adv-x="707" 
d="M350 -20q-82 0 -143.5 30.5t-102.5 80.5t-61 110t-20 119v174q0 23 4 44t23 34.5t65 13.5t65 -13.5t23 -34.5t4 -45v-173q0 -51 16.5 -85.5t49 -52.5t79.5 -18q58 0 90 22t45 58t13 77v178q0 22 4.5 41.5t24 32.5t63.5 13q46 0 65 -14t23 -35t4 -44v-175
q0 -60 -20.5 -119.5t-62 -109t-104.5 -79.5t-147 -30zM147 169v119h48q15 0 26 10t19.5 30.5t13 51t5.5 70.5l2 50q1 22 5.5 41.5t23.5 32t64 12.5q46 0 65.5 -13.5t23.5 -35t2 -45.5l-3 -46q-5 -67 -17.5 -119t-37.5 -87t-67 -53t-105 -18h-68z" />
    <glyph glyph-name="uni05EA" unicode="&#x5ea;" horiz-adv-x="686" 
d="M116 -9q-23 0 -44.5 4t-35 23.5t-13.5 64.5q0 46 13.5 65t35 23t43.5 4h17v291l124 -60q-37 -6 -73 -9.5t-65 1t-46 22t-17 53.5q0 59 28 84.5t93 26.5l166 2q108 1 179 -36t106.5 -112.5t35.5 -190.5v-163q0 -23 -4 -44.5t-22.5 -35t-64.5 -13.5q-45 0 -64 12.5
t-23.5 32.5t-4.5 41v168q0 55 -13.5 89.5t-41 51t-71.5 16.5h-37v-301q0 -53 -24 -81.5t-69 -28.5h-108z" />
    <glyph glyph-name="uni05F3" unicode="&#x5f3;" horiz-adv-x="220" 
d="M38 352l-6.5 2t-13 11t-6.5 31q0 26 8.5 35t13.5 10q2 2 18 15.5t20 44.5q-13 3 -23.5 8.5t-18.5 12.5q-14 14 -16.5 35t-2.5 40q1 22 5 43.5t24.5 36t68.5 14.5q54 0 76 -22q14 -14 16.5 -34.5t2.5 -40.5q0 -10 -0.5 -19.5t-2.5 -18.5q-5 -57 -28.5 -103t-58.5 -73.5
t-76 -27.5z" />
    <glyph glyph-name="uni05F4" unicode="&#x5f4;" horiz-adv-x="448" 
d="M48 351l-6.5 2t-13 11t-6.5 31q0 26 8.5 35t13.5 10q2 2 18 15.5t20 44.5q-13 3 -23.5 8.5t-18.5 12.5q-14 14 -16.5 35t-2.5 40q1 22 5 43.5t24.5 36t68.5 14.5q54 0 76 -22q14 -14 16.5 -34.5t2.5 -40.5q0 -10 -0.5 -19.5t-2.5 -18.5q-5 -57 -28.5 -103t-58.5 -73.5
t-76 -27.5zM259 351l-6.5 2t-13 11t-6.5 31q0 26 8.5 35t13.5 10q2 2 18 15.5t20 44.5q-13 3 -23.5 8.5t-18.5 12.5q-14 14 -16.5 35t-2.5 40q1 22 5 43.5t24.5 36t68.5 14.5q54 0 76 -22q14 -14 16.5 -34.5t2.5 -40.5q0 -10 -0.5 -19.5t-2.5 -18.5q-5 -57 -28.5 -103
t-58.5 -73.5t-76 -27.5z" />
    <glyph glyph-name="endash" unicode="&#x2013;" horiz-adv-x="542" 
d="M91 170q-16 0 -33.5 4t-30 22t-12.5 60t13 59t31.5 20.5t34.5 3.5h354q17 0 35.5 -3.5t31 -21t12.5 -59.5t-12 -59.5t-30 -21.5t-38 -4h-356z" />
    <glyph glyph-name="emdash" unicode="&#x2014;" horiz-adv-x="665" 
d="M91 170q-16 0 -33.5 4t-30 22t-12.5 60t13 59t31.5 20.5t34.5 3.5h478q17 0 35 -3.5t30.5 -21t12.5 -59.5t-11.5 -59.5t-29.5 -21.5t-38 -4h-480z" />
    <glyph glyph-name="quoteleft" unicode="&#x2018;" horiz-adv-x="220" 
d="M179 692l6.5 -2t13 -11t6.5 -31q0 -26 -8.5 -34.5t-13.5 -10.5q-2 -1 -17.5 -14.5t-20.5 -45.5q13 -3 23.5 -8t18.5 -13q14 -14 16.5 -34.5t2.5 -40.5q0 -22 -4.5 -43.5t-24.5 -36t-69 -14.5q-54 0 -76 22q-14 14 -16.5 34.5t-2.5 40.5q0 10 1 19.5t2 18.5q6 57 29 103.5
t58.5 73.5t75.5 27z" />
    <glyph glyph-name="quoteright" unicode="&#x2019;" horiz-adv-x="220" 
d="M38 352l-6.5 2t-13 11t-6.5 31q0 26 8.5 35t13.5 10q2 2 18 15.5t20 44.5q-13 3 -23.5 8.5t-18.5 12.5q-14 14 -16.5 35t-2.5 40q1 22 5 43.5t24.5 36t68.5 14.5q54 0 76 -22q14 -14 16.5 -34.5t2.5 -40.5q0 -10 -0.5 -19.5t-2.5 -18.5q-5 -57 -28.5 -103t-58.5 -73.5
t-76 -27.5z" />
    <glyph glyph-name="quotesinglbase" unicode="&#x201a;" horiz-adv-x="223" 
d="M43 -157l-6.5 2t-13 11t-6.5 31q0 26 8.5 35t13.5 10q2 2 18 15.5t20 44.5q-13 3 -23.5 8.5t-18.5 12.5q-14 14 -16.5 35t-2.5 40q1 22 5 43.5t24.5 36t68.5 14.5q54 0 76 -22q14 -14 16.5 -34.5t2.5 -40.5q0 -10 -0.5 -19.5t-2.5 -18.5q-5 -57 -28.5 -103t-58.5 -73.5
t-76 -27.5z" />
    <glyph glyph-name="quotedblleft" unicode="&#x201c;" horiz-adv-x="448" 
d="M396 692l6.5 -2t13 -11t6.5 -31q0 -26 -8.5 -34.5t-13.5 -10.5q-2 -1 -17.5 -14.5t-20.5 -45.5q13 -3 23.5 -8t18.5 -13q14 -14 16.5 -34.5t2.5 -40.5q0 -22 -4.5 -43.5t-24.5 -36t-69 -14.5q-54 0 -76 22q-14 14 -16.5 34.5t-2.5 40.5q0 10 1 19.5t2 18.5q6 57 29 103.5
t58.5 73.5t75.5 27zM185 692l6.5 -2t13 -11t6.5 -31q0 -26 -8.5 -34.5t-13.5 -10.5q-2 -1 -17.5 -14.5t-20.5 -45.5q13 -3 23.5 -8t18.5 -13q14 -14 16.5 -34.5t2.5 -40.5q0 -22 -4.5 -43.5t-24.5 -36t-69 -14.5q-54 0 -76 22q-14 14 -16.5 34.5t-2.5 40.5q0 10 1 19.5
t2 18.5q6 57 29 103.5t58.5 73.5t75.5 27z" />
    <glyph glyph-name="quotedblright" unicode="&#x201d;" horiz-adv-x="448" 
d="M48 351l-6.5 2t-13 11t-6.5 31q0 26 8.5 35t13.5 10q2 2 18 15.5t20 44.5q-13 3 -23.5 8.5t-18.5 12.5q-14 14 -16.5 35t-2.5 40q1 22 5 43.5t24.5 36t68.5 14.5q54 0 76 -22q14 -14 16.5 -34.5t2.5 -40.5q0 -10 -0.5 -19.5t-2.5 -18.5q-5 -57 -28.5 -103t-58.5 -73.5
t-76 -27.5zM259 351l-6.5 2t-13 11t-6.5 31q0 26 8.5 35t13.5 10q2 2 18 15.5t20 44.5q-13 3 -23.5 8.5t-18.5 12.5q-14 14 -16.5 35t-2.5 40q1 22 5 43.5t24.5 36t68.5 14.5q54 0 76 -22q14 -14 16.5 -34.5t2.5 -40.5q0 -10 -0.5 -19.5t-2.5 -18.5q-5 -57 -28.5 -103
t-58.5 -73.5t-76 -27.5z" />
    <glyph glyph-name="quotedblbase" unicode="&#x201e;" horiz-adv-x="448" 
d="M49 -157l-6.5 2t-13 11t-6.5 31q0 26 8.5 35t13.5 10q2 2 18 15.5t20 44.5q-13 3 -23.5 8.5t-18.5 12.5q-14 14 -16.5 35t-2.5 40q1 22 5 43.5t24.5 36t68.5 14.5q54 0 76 -22q14 -14 16.5 -34.5t2.5 -40.5q0 -10 -0.5 -19.5t-2.5 -18.5q-5 -57 -28.5 -103t-58.5 -73.5
t-76 -27.5zM263 -157l-6.5 2t-13 11t-6.5 31q0 26 8.5 35t13.5 10q2 2 18 15.5t20 44.5q-13 3 -23.5 8.5t-18.5 12.5q-14 14 -16.5 35t-2.5 40q1 22 5 43.5t24.5 36t68.5 14.5q54 0 76 -22q14 -14 16.5 -34.5t2.5 -40.5q0 -10 -0.5 -19.5t-2.5 -18.5q-5 -57 -28.5 -103
t-58.5 -73.5t-76 -27.5z" />
    <glyph glyph-name="dagger" unicode="&#x2020;" horiz-adv-x="490" 
d="M245 -185q-44 0 -63 13t-23 33.5t-4 43.5v713q0 21 4 41t23 32.5t64 12.5t63.5 -13.5t22 -34t3.5 -42.5v-710q0 -22 -4 -42.5t-22.5 -33.5t-63.5 -13zM85 320q-17 0 -36 3.5t-31.5 21.5t-12.5 59t13.5 58t33 20.5t36.5 3.5l157 -6l158 6q18 0 37 -3.5t32 -20.5t13 -59
q0 -41 -12 -58.5t-31 -21t-40 -3.5l-157 6z" />
    <glyph glyph-name="daggerdbl" unicode="&#x2021;" horiz-adv-x="490" 
d="M245 -185q-44 0 -63 13t-23 33.5t-4 43.5v713q0 21 4 41t23 32.5t64 12.5t63.5 -13.5t22 -34t3.5 -42.5v-710q0 -22 -4 -42.5t-22.5 -33.5t-63.5 -13zM85 31q-17 0 -36 3.5t-31.5 21.5t-12.5 59t13.5 58.5t33 21t36.5 2.5l157 -6l158 6q18 1 37 -2.5t32 -21t13 -59.5
q0 -41 -12 -59t-31 -21.5t-40 -2.5l-157 6zM85 320q-17 0 -36 3.5t-31.5 21.5t-12.5 59t13.5 58t33 20.5t36.5 3.5l157 -6l158 6q18 0 37 -3.5t32 -20.5t13 -59q0 -41 -12 -58.5t-31 -21t-40 -3.5l-157 6z" />
    <glyph glyph-name="bullet" unicode="&#x2022;" horiz-adv-x="318" 
d="M159 149q-48 0 -80 16t-48.5 48.5t-16.5 80.5t16.5 80t48.5 48.5t80 16.5t80 -16.5t48.5 -48.5t16.5 -80t-16.5 -80t-48.5 -48.5t-80 -16.5z" />
    <glyph glyph-name="ellipsis" unicode="&#x2026;" horiz-adv-x="803" 
d="M401 -10q-53 0 -74.5 21t-21.5 73q0 37 9.5 58t30.5 30.5t57 9.5q53 0 74 -21.5t21 -75.5q0 -35 -9 -56t-30 -30t-57 -9zM682 -10q-53 0 -74.5 21t-21.5 73q0 37 9.5 58t30.5 30.5t57 9.5q53 0 74 -21.5t21 -75.5q0 -35 -9 -56t-30 -30t-57 -9zM121 -10q-53 0 -74.5 21
t-21.5 73q0 37 9.5 58t30.5 30.5t57 9.5q53 0 74 -21.5t21 -75.5q0 -35 -9 -56t-30 -30t-57 -9z" />
    <glyph glyph-name="perthousand" unicode="&#x2030;" horiz-adv-x="1137" 
d="M194 -27q-14 8 -22.5 16.5t-9.5 19.5t7 24l360 679q8 14 17 20.5t21 5.5t27 -10q16 -9 24 -18.5t8 -19t-8 -21.5l-362 -683q-7 -14 -15.5 -19t-20 -3t-26.5 9zM194 328q-75 0 -120.5 50t-45.5 132q0 84 44.5 134t120.5 50q79 0 123 -48.5t44 -134.5q0 -87 -43 -135
t-123 -48zM193 458q25 0 36 13t11 41q0 29 -10.5 40.5t-36.5 11.5q-25 0 -35.5 -11.5t-10.5 -40.5t10.5 -41.5t35.5 -12.5zM588 -11q-75 0 -121 50t-46 132q0 85 45 134.5t121 49.5q79 0 122.5 -48t43.5 -135q0 -88 -42.5 -135.5t-122.5 -47.5zM587 119q26 0 36.5 12.5
t10.5 41.5t-10.5 40.5t-36.5 11.5q-25 0 -35.5 -12t-10.5 -41t10.5 -41t35.5 -12zM944 -11q-75 0 -121 50t-46 132q0 85 45 134.5t121 49.5q79 0 122.5 -48.5t43.5 -134.5q0 -88 -42.5 -135.5t-122.5 -47.5zM943 119q25 0 36 13t11 41q0 30 -10.5 41t-37.5 11q-25 0 -35 -12
t-10 -41t10.5 -41t35.5 -12z" />
    <glyph glyph-name="guilsinglleft" unicode="&#x2039;" horiz-adv-x="356" 
d="M317 28q-23 -23 -41.5 -31t-36 -0.5t-38.5 27.5l-161 160q-15 15 -21.5 29.5t-6.5 30.5t6.5 30t21.5 29l163 162q21 21 38.5 27.5t35.5 -1.5t40 -31q25 -24 28 -42t-8.5 -34.5t-32.5 -38.5l-102 -101l101 -101q23 -22 34.5 -39t7.5 -34.5t-28 -41.5z" />
    <glyph glyph-name="guilsinglright" unicode="&#x203a;" horiz-adv-x="360" 
d="M42 28q-24 24 -28 41.5t8 34.5t34 39l101 101l-102 101q-20 22 -32 38.5t-8.5 34.5t27.5 42q23 23 40.5 31t35 1.5t38.5 -27.5l163 -162q15 -15 21.5 -29t6.5 -30t-6.5 -30.5t-21.5 -29.5l-161 -160q-20 -20 -37.5 -27.5t-36 0.5t-42.5 31z" />
    <glyph glyph-name="fraction" unicode="&#x2044;" horiz-adv-x="497" 
d="M49 -27q-25 13 -30.5 24.5t-1 21.5t8.5 18l357 675q5 9 11.5 17t19.5 9.5t35 -10.5q25 -13 30 -24.5t0.5 -21t-8.5 -18.5l-358 -675q-4 -9 -11 -17t-19 -9.5t-34 10.5z" />
    <glyph glyph-name="Euro" unicode="&#x20ac;" horiz-adv-x="569" 
d="M352 -7q-41 0 -77 10.5t-66.5 31.5t-53.5 51t-39.5 69.5t-25.5 87.5q-4 38 -5.5 77t-0.5 77t3 72q10 64 32 109t51 73.5t61 44.5t63.5 22.5t57.5 6.5h116q22 0 42 -4t32.5 -23t12.5 -64t-13.5 -64t-34 -22.5t-43.5 -3.5h-112q-7 0 -15.5 -1t-18.5 -4.5t-19 -11.5
t-16.5 -23t-11.5 -39q-6 -34 -8 -71t0 -73t7 -69q6 -22 13.5 -37t15.5 -23.5t17 -12.5t18 -5t18 -1h113q23 0 43.5 -4t33.5 -23t13 -64q0 -43 -12.5 -62t-32 -23t-40.5 -4h-118zM63 224q-14 0 -27.5 2.5t-22 15t-8.5 42.5q0 29 9.5 40.5t23 13.5t24.5 2h383q12 0 25.5 -2.5
t23 -14.5t9.5 -41q0 -28 -8.5 -40.5t-22 -15t-27.5 -2.5h-382zM63 377q-14 0 -27.5 2.5t-22 15t-8.5 41.5t9.5 41t23 14.5t24.5 2.5h383q12 0 25.5 -2.5t23 -15t9.5 -42.5q0 -28 -8.5 -40t-22 -14.5t-27.5 -2.5h-382z" />
    <glyph glyph-name="trademark" unicode="&#x2122;" horiz-adv-x="781" 
d="M182 212q-32 0 -46 10t-17.5 24t-3.5 26v198h-55q-10 0 -23 2.5t-22.5 16t-9.5 45.5q0 33 9 46.5t21 16t22 2.5h248q13 0 25 -2.5t20 -16t8 -46.5q0 -64 -53 -64h-56v-199q0 -12 -3 -26t-17 -23.5t-47 -9.5zM433 212q-32 0 -45.5 9t-16 23t-2.5 27l1 264q0 9 3 24.5
t17.5 28t48.5 12.5q26 0 38 -10t15 -14l70 -98l66 94q2 4 15 15.5t39 11.5q36 0 50.5 -12.5t17.5 -30t3 -31.5v-254q0 -14 -3 -27.5t-16 -22.5t-44 -9q-33 0 -48 8.5t-18.5 21.5t-3.5 28v61l-28 -25q-7 -4 -15 -7t-16 -3q-7 0 -15.5 3t-16.5 9l-26 24v-59q0 -15 -3 -29
t-17.5 -23t-49.5 -9z" />
    <glyph glyph-name="minus" unicode="&#x2212;" horiz-adv-x="540" 
d="M92 170q-16 0 -34 3.5t-31 21.5t-13 61q0 42 13 59t31.5 20.5t34.5 3.5h354q17 0 35.5 -3.5t31 -21t12.5 -59.5q0 -43 -12.5 -60.5t-30.5 -21t-37 -3.5h-354z" />
    </font>
</defs>
</svg>
